<?xml version="1.0" standalone="no"?>
<!DOCTYPE svg PUBLIC "-//W3C//DTD SVG 1.1//EN" "http://www.w3.org/Graphics/SVG/1.1/DTD/svg11.dtd" >
<svg xmlns="http://www.w3.org/2000/svg" xmlns:xlink="http://www.w3.org/1999/xlink" version="1.1">
<metadata>
Created by FontForge 20170924 at Wed Jun 26 16:32:41 2019
 By www-data
Copyright (c) 2019 by Lynk &#38; Co. All rights reserved. Designed by Letters from Sweden and Geely Design.
</metadata>
<defs>
<font id="LynkcoType-Light" horiz-adv-x="0" >
  <font-face 
    font-family="Lynkco Type Light"
    font-weight="300"
    font-stretch="normal"
    units-per-em="1000"
    panose-1="0 0 4 0 0 0 0 0 0 0"
    ascent="750"
    descent="-250"
    x-height="478"
    cap-height="680"
    bbox="-366 -236 1041 883"
    underline-thickness="50"
    underline-position="-100"
    unicode-range="U+0020-FB02"
  />
<missing-glyph horiz-adv-x="450" 
d="M50 780h350v-880h-350v880zM370 -70v820h-290v-820h290z" />
    <glyph glyph-name="fi" unicode="fi" horiz-adv-x="546" 
d="M173 624v-145h80v-42h-80v-437h-52v437h-69v42h69v126q0 52 28 80t74 28q22 0 35 -5v-41q-12 2 -26 2q-51 0 -59 -45zM399 479h52v-479h-52v479zM384 683h81v-82h-81v82z" />
    <glyph glyph-name="fl" unicode="fl" horiz-adv-x="546" 
d="M173 624v-145h80v-42h-80v-437h-52v437h-69v42h69v126q0 52 28 80t74 28q22 0 35 -5v-41q-12 2 -26 2q-51 0 -59 -45zM399 710h52v-710h-52v710z" />
    <glyph glyph-name=".notdef" horiz-adv-x="450" 
d="M50 780h350v-880h-350v880zM370 -70v820h-290v-820h290z" />
    <glyph glyph-name="space" unicode=" " horiz-adv-x="209" 
 />
    <glyph glyph-name="A" unicode="A" horiz-adv-x="603" 
d="M446 217h-291l-86 -217h-52l283 705h2l284 -705h-53zM428 264l-127 319l-127 -319h254z" />
    <glyph glyph-name="Aacute" unicode="&#xc1;" horiz-adv-x="603" 
d="M446 217h-291l-86 -217h-52l283 705h2l284 -705h-53zM428 264l-127 319l-127 -319h254zM348 853h62l-83 -111h-53z" />
    <glyph glyph-name="Abreve" unicode="&#x102;" horiz-adv-x="603" 
d="M446 217h-291l-86 -217h-52l283 705h2l284 -705h-53zM428 264l-127 319l-127 -319h254zM221.5 761q-30.5 28 -33.5 69h37q3 -22 22.5 -40t53.5 -18t54 18t23 40h37q-3 -42 -33.5 -69.5t-80.5 -27.5q-49 0 -79.5 28z" />
    <glyph glyph-name="Acircumflex" unicode="&#xc2;" horiz-adv-x="603" 
d="M446 217h-291l-86 -217h-52l283 705h2l284 -705h-53zM428 264l-127 319l-127 -319h254zM370 742l-69 81l-69 -81h-51l88 111h64l88 -111h-51z" />
    <glyph glyph-name="Adieresis" unicode="&#xc4;" horiz-adv-x="603" 
d="M446 217h-291l-86 -217h-52l283 705h2l284 -705h-53zM428 264l-127 319l-127 -319h254zM170 835h74v-83h-74v83zM360 835h73v-83h-73v83z" />
    <glyph glyph-name="Agrave" unicode="&#xc0;" horiz-adv-x="603" 
d="M446 217h-291l-86 -217h-52l283 705h2l284 -705h-53zM428 264l-127 319l-127 -319h254zM191 853h62l74 -111h-53z" />
    <glyph glyph-name="Amacron" unicode="&#x100;" horiz-adv-x="603" 
d="M446 217h-291l-86 -217h-52l283 705h2l284 -705h-53zM428 264l-127 319l-127 -319h254zM190 808h224v-46h-224v46z" />
    <glyph glyph-name="Aogonek" unicode="&#x104;" horiz-adv-x="603" 
d="M553 -148q16 0 33 5v-35q-18 -6 -37 -6h-4q-41 0 -63.5 19.5t-22.5 54.5v3q0 53 72 103l5 4h-3l-87 217h-291l-86 -217h-52l283 705h2l284 -705l-33 -24q-22 -17 -35.5 -37t-13.5 -41v-3q0 -19 13 -31t32 -12h4zM428 264l-127 319l-127 -319h254z" />
    <glyph glyph-name="Aring" unicode="&#xc5;" horiz-adv-x="603" 
d="M446 217h-291l-86 -217h-52l274 683q-30 4 -51.5 27.5t-21.5 54.5q0 33 25 57.5t59 24.5t58.5 -24.5t24.5 -57.5q0 -31 -21.5 -55t-52.5 -27l275 -683h-53zM268 731q14 -14 34 -14t34 14t14 34q0 19 -14 33t-34 14t-34 -14t-14 -33q0 -20 14 -34zM428 264l-127 319
l-127 -319h254z" />
    <glyph glyph-name="Atilde" unicode="&#xc3;" horiz-adv-x="603" 
d="M446 217h-291l-86 -217h-52l283 705h2l284 -705h-53zM428 264l-127 319l-127 -319h254zM183.5 807q17.5 23 49.5 23q31 0 68 -20l21 -11q32 -15 48 -15q27 0 30 46h37q-5 -87 -67 -87q-25 0 -69 22l-22 11q-23 13 -46 13q-28 0 -31 -46h-37q1 41 18.5 64z" />
    <glyph glyph-name="AE" unicode="&#xc6;" horiz-adv-x="815" 
d="M750 48v-48h-353v251h-207l-135 -251h-55l369 680h376v-48h-295v-248h268v-48h-268v-288h300zM397 298v339l-182 -339h182z" />
    <glyph glyph-name="B" unicode="B" horiz-adv-x="547" 
d="M461 301q37 -44 37 -105v-12q0 -56 -28 -97.5t-73.5 -64t-96.5 -22.5h-194v680h175q45 0 86 -20t66.5 -57.5t25.5 -87.5v-12q0 -48 -25.5 -84t-67.5 -56q58 -18 95 -62zM157 634v-253h121q45 0 80.5 24t44.5 58q2 16 2 45q0 32 -2 44q-9 34 -44.5 58t-81.5 24h-120z
M444 191q0 40 -2 52q-14 41 -54 67t-92 26h-139v-290h138q53 0 93 26.5t54 67.5q2 14 2 51z" />
    <glyph glyph-name="C" unicode="C" horiz-adv-x="590" 
d="M200 26q-64 38 -100.5 109.5t-36.5 169.5v70q0 98 36.5 169.5t100.5 109.5t144 38h7q57 0 105 -19.5t84 -50.5v-63q-35 37 -84 61.5t-103 24.5h-8q-64 0 -111.5 -28.5t-75 -69.5t-35.5 -81q-3 -33 -3 -126t3 -126q8 -40 35.5 -81t74.5 -69.5t112 -28.5h8q54 0 102.5 24.5
t84.5 61.5v-63q-36 -31 -84 -50.5t-105 -19.5h-7q-80 0 -144 38z" />
    <glyph glyph-name="Cacute" unicode="&#x106;" horiz-adv-x="590" 
d="M200 26q-64 38 -100.5 109.5t-36.5 169.5v70q0 98 36.5 169.5t100.5 109.5t144 38h7q57 0 105 -19.5t84 -50.5v-63q-35 37 -84 61.5t-103 24.5h-8q-64 0 -111.5 -28.5t-75 -69.5t-35.5 -81q-3 -33 -3 -126t3 -126q8 -40 35.5 -81t74.5 -69.5t112 -28.5h8q54 0 102.5 24.5
t84.5 61.5v-63q-36 -31 -84 -50.5t-105 -19.5h-7q-80 0 -144 38zM401 845h62l-83 -111h-53z" />
    <glyph glyph-name="Ccaron" unicode="&#x10c;" horiz-adv-x="590" 
d="M200 26q-64 38 -100.5 109.5t-36.5 169.5v70q0 98 36.5 169.5t100.5 109.5t144 38h7q57 0 105 -19.5t84 -50.5v-63q-35 37 -84 61.5t-103 24.5h-8q-64 0 -111.5 -28.5t-75 -69.5t-35.5 -81q-3 -33 -3 -126t3 -126q8 -40 35.5 -81t74.5 -69.5t112 -28.5h8q54 0 102.5 24.5
t84.5 61.5v-63q-36 -31 -84 -50.5t-105 -19.5h-7q-80 0 -144 38zM473 845l-88 -111h-64l-88 111h51l69 -81l69 81h51z" />
    <glyph glyph-name="Ccedilla" unicode="&#xc7;" horiz-adv-x="590" 
d="M233.5 616.5q-47.5 -28.5 -75 -69.5t-35.5 -81q-3 -33 -3 -126t3 -126q8 -40 35.5 -81t74.5 -69.5t112 -28.5h8q54 0 102.5 24.5t84.5 61.5v-63q-35 -30 -82.5 -49.5t-102.5 -20.5l-23 -54q41 -3 66.5 -24.5t25.5 -58.5v-3q0 -40 -28.5 -62t-73.5 -22h-4q-48 0 -82 23v38
q30 -26 81 -26h4q25 0 41.5 12.5t16.5 32.5v11q0 19 -18.5 31.5t-46.5 12.5h-35l38 90q-74 7 -131.5 46t-90 108t-32.5 162v70q0 98 36.5 169.5t100.5 109.5t144 38h7q57 0 105 -19.5t84 -50.5v-63q-35 37 -84 61.5t-103 24.5h-8q-64 0 -111.5 -28.5z" />
    <glyph glyph-name="Cdotaccent" unicode="&#x10a;" horiz-adv-x="590" 
d="M200 26q-64 38 -100.5 109.5t-36.5 169.5v70q0 98 36.5 169.5t100.5 109.5t144 38h7q57 0 105 -19.5t84 -50.5v-63q-35 37 -84 61.5t-103 24.5h-8q-64 0 -111.5 -28.5t-75 -69.5t-35.5 -81q-3 -33 -3 -126t3 -126q8 -40 35.5 -81t74.5 -69.5t112 -28.5h8q54 0 102.5 24.5
t84.5 61.5v-63q-36 -31 -84 -50.5t-105 -19.5h-7q-80 0 -144 38zM313 827h81v-83h-81v83z" />
    <glyph glyph-name="D" unicode="D" horiz-adv-x="643" 
d="M448.5 643.5q60.5 -36.5 96 -106t35.5 -162.5v-70q0 -93 -35.5 -162.5t-96 -106t-133.5 -36.5h-209v680h209q73 0 133.5 -36.5zM523 340q0 92 -3 125q-7 37 -33 76t-70 65.5t-102 26.5h-156v-586h156q58 0 102 26.5t70 65.5t33 76q3 33 3 125z" />
    <glyph glyph-name="Eth" unicode="&#xd0;" horiz-adv-x="673" 
d="M478.5 643.5q60.5 -36.5 96 -106t35.5 -162.5v-70q0 -93 -35.5 -162.5t-96 -106t-133.5 -36.5h-209v319h-72v42h72v319h209q73 0 133.5 -36.5zM553 340q0 92 -3 125q-7 37 -33 76t-70 65.5t-102 26.5h-156v-272h181v-42h-181v-272h156q58 0 102 26.5t70 65.5t33 76
q3 33 3 125z" />
    <glyph glyph-name="Dcaron" unicode="&#x10e;" horiz-adv-x="643" 
d="M448.5 643.5q60.5 -36.5 96 -106t35.5 -162.5v-70q0 -93 -35.5 -162.5t-96 -106t-133.5 -36.5h-209v680h209q73 0 133.5 -36.5zM523 340q0 92 -3 125q-7 37 -33 76t-70 65.5t-102 26.5h-156v-586h156q58 0 102 26.5t70 65.5t33 76q3 33 3 125zM436 853l-88 -111h-64
l-88 111h51l69 -81l69 81h51z" />
    <glyph glyph-name="Dcroat" unicode="&#x110;" horiz-adv-x="673" 
d="M478.5 643.5q60.5 -36.5 96 -106t35.5 -162.5v-70q0 -93 -35.5 -162.5t-96 -106t-133.5 -36.5h-209v319h-72v42h72v319h209q73 0 133.5 -36.5zM553 340q0 92 -3 125q-7 37 -33 76t-70 65.5t-102 26.5h-156v-272h181v-42h-181v-272h156q58 0 102 26.5t70 65.5t33 76
q3 33 3 125z" />
    <glyph glyph-name="E" unicode="E" horiz-adv-x="524" 
d="M459 48v-48h-353v680h348v-48h-295v-248h268v-48h-268v-288h300z" />
    <glyph glyph-name="Eacute" unicode="&#xc9;" horiz-adv-x="524" 
d="M459 48v-48h-353v680h348v-48h-295v-248h268v-48h-268v-288h300zM327 853h62l-83 -111h-53z" />
    <glyph glyph-name="Ecaron" unicode="&#x11a;" horiz-adv-x="524" 
d="M459 48v-48h-353v680h348v-48h-295v-248h268v-48h-268v-288h300zM400 853l-88 -111h-64l-88 111h51l69 -81l69 81h51z" />
    <glyph glyph-name="Ecircumflex" unicode="&#xca;" horiz-adv-x="524" 
d="M459 48v-48h-353v680h348v-48h-295v-248h268v-48h-268v-288h300zM349 742l-69 81l-69 -81h-51l88 111h64l88 -111h-51z" />
    <glyph glyph-name="Edieresis" unicode="&#xcb;" horiz-adv-x="524" 
d="M459 48v-48h-353v680h348v-48h-295v-248h268v-48h-268v-288h300zM149 835h74v-83h-74v83zM339 835h73v-83h-73v83z" />
    <glyph glyph-name="Edotaccent" unicode="&#x116;" horiz-adv-x="524" 
d="M459 48v-48h-353v680h348v-48h-295v-248h268v-48h-268v-288h300zM240 835h81v-83h-81v83z" />
    <glyph glyph-name="Egrave" unicode="&#xc8;" horiz-adv-x="524" 
d="M459 48v-48h-353v680h348v-48h-295v-248h268v-48h-268v-288h300zM170 853h62l74 -111h-53z" />
    <glyph glyph-name="Emacron" unicode="&#x112;" horiz-adv-x="524" 
d="M459 48v-48h-353v680h348v-48h-295v-248h268v-48h-268v-288h300zM168 808h224v-46h-224v46z" />
    <glyph glyph-name="Eogonek" unicode="&#x118;" horiz-adv-x="524" 
d="M390.5 -61q-13.5 -20 -13.5 -41v-3q0 -19 13 -31t32 -12h4q16 0 33 5v-35q-18 -6 -37 -6h-4q-41 0 -63.5 19.5t-22.5 54.5v3q0 53 72 103l5 4h-303v680h348v-48h-295v-248h268v-48h-268v-288h300v-48l-33 -24q-22 -17 -35.5 -37z" />
    <glyph glyph-name="F" unicode="F" horiz-adv-x="503" 
d="M159 632v-260h277v-48h-277v-324h-53v680h348v-48h-295z" />
    <glyph glyph-name="G" unicode="G" horiz-adv-x="660" 
d="M602 317v-56q0 -81 -31.5 -143t-88 -96t-128.5 -34h-15q-77 0 -140 38t-99.5 110t-36.5 169v70q0 97 36.5 169t99.5 110t140 38h7q82 0 147 -43.5t98 -122.5h-56q-26 55 -75 87t-114 32h-7q-61 0 -107.5 -28.5t-73.5 -70t-35 -80.5q-3 -33 -3 -126t3 -126q8 -40 35 -81.5
t73.5 -70t107.5 -28.5h15q61 0 104 28.5t66 70.5t27 81v56h-198v47h249z" />
    <glyph glyph-name="Gbreve" unicode="&#x11e;" horiz-adv-x="660" 
d="M602 317v-56q0 -81 -31.5 -143t-88 -96t-128.5 -34h-15q-77 0 -140 38t-99.5 110t-36.5 169v70q0 97 36.5 169t99.5 110t140 38h7q82 0 147 -43.5t98 -122.5h-56q-26 55 -75 87t-114 32h-7q-61 0 -107.5 -28.5t-73.5 -70t-35 -80.5q-3 -33 -3 -126t3 -126q8 -40 35 -81.5
t73.5 -70t107.5 -28.5h15q61 0 104 28.5t66 70.5t27 81v56h-198v47h249zM264.5 761q-30.5 28 -33.5 69h37q3 -22 22.5 -40t53.5 -18t54 18t23 40h37q-3 -42 -33.5 -69.5t-80.5 -27.5q-49 0 -79.5 28z" />
    <glyph glyph-name="uni0122" unicode="&#x122;" horiz-adv-x="660" 
d="M602 317v-56q0 -81 -31.5 -143t-88 -96t-128.5 -34h-15q-77 0 -140 38t-99.5 110t-36.5 169v70q0 97 36.5 169t99.5 110t140 38h7q82 0 147 -43.5t98 -122.5h-56q-26 55 -75 87t-114 32h-7q-61 0 -107.5 -28.5t-73.5 -70t-35 -80.5q-3 -33 -3 -126t3 -126q8 -40 35 -81.5
t73.5 -70t107.5 -28.5h15q61 0 104 28.5t66 70.5t27 81v56h-198v47h249zM319 -69h51v-79l-50 -47h-1v126z" />
    <glyph glyph-name="Gdotaccent" unicode="&#x120;" horiz-adv-x="660" 
d="M602 317v-56q0 -81 -31.5 -143t-88 -96t-128.5 -34h-15q-77 0 -140 38t-99.5 110t-36.5 169v70q0 97 36.5 169t99.5 110t140 38h7q82 0 147 -43.5t98 -122.5h-56q-26 55 -75 87t-114 32h-7q-61 0 -107.5 -28.5t-73.5 -70t-35 -80.5q-3 -33 -3 -126t3 -126q8 -40 35 -81.5
t73.5 -70t107.5 -28.5h15q61 0 104 28.5t66 70.5t27 81v56h-198v47h249zM304 835h81v-83h-81v83z" />
    <glyph glyph-name="H" unicode="H" horiz-adv-x="676" 
d="M570 680v-680h-54v336h-357v-336h-53v680h53v-296h357v296h54z" />
    <glyph glyph-name="Hbar" unicode="&#x126;" horiz-adv-x="676" 
d="M619 512h-49v-512h-54v336h-357v-336h-53v512h-49v38h49v130h53v-130h357v130h54v-130h49v-38zM516 512h-357v-128h357v128z" />
    <glyph glyph-name="I" unicode="I" horiz-adv-x="265" 
d="M106 680h53v-680h-53v680z" />
    <glyph glyph-name="Iacute" unicode="&#xcd;" horiz-adv-x="265" 
d="M106 680h53v-680h-53v680zM180 853h62l-83 -111h-53z" />
    <glyph glyph-name="Icircumflex" unicode="&#xce;" horiz-adv-x="265" 
d="M106 680h53v-680h-53v680zM202 742l-69 81l-69 -81h-51l88 111h64l88 -111h-51z" />
    <glyph glyph-name="Idieresis" unicode="&#xcf;" horiz-adv-x="265" 
d="M106 680h53v-680h-53v680zM1 835h74v-83h-74v83zM191 835h73v-83h-73v83z" />
    <glyph glyph-name="Idotaccent" unicode="&#x130;" horiz-adv-x="265" 
d="M106 680h53v-680h-53v680zM92 835h81v-83h-81v83z" />
    <glyph glyph-name="Igrave" unicode="&#xcc;" horiz-adv-x="265" 
d="M106 680h53v-680h-53v680zM23 853h62l74 -111h-53z" />
    <glyph glyph-name="Imacron" unicode="&#x12a;" horiz-adv-x="265" 
d="M106 680h53v-680h-53v680zM21 808h224v-46h-224v46z" />
    <glyph glyph-name="Iogonek" unicode="&#x12e;" horiz-adv-x="265" 
d="M90.5 -61q-13.5 -20 -13.5 -41v-3q0 -19 13 -31t32 -12h4q16 0 33 5v-35q-18 -6 -37 -6h-4q-41 0 -63.5 19.5t-22.5 54.5v3q0 53 72 103l5 4h-3v680h53v-680l-33 -24q-22 -17 -35.5 -37z" />
    <glyph glyph-name="J" unicode="J" horiz-adv-x="385" 
d="M67 -7q-27 5 -46 13v48q17 -8 42.5 -13.5t53.5 -5.5h5q49 0 76.5 24t35.5 56v565h54v-532q0 -72 -43.5 -116t-119.5 -44h-5q-26 0 -53 5z" />
    <glyph glyph-name="K" unicode="K" horiz-adv-x="566" 
d="M488 0l-329 357v-357h-53v680h53v-321l304 321h67l-307 -319l333 -361h-68z" />
    <glyph glyph-name="uni0136" unicode="&#x136;" horiz-adv-x="566" 
d="M488 0l-329 357v-357h-53v680h53v-321l304 321h67l-307 -319l333 -361h-68zM258 -69h51v-79l-50 -47h-1v126z" />
    <glyph glyph-name="L" unicode="L" horiz-adv-x="462" 
d="M435 48v-48h-329v680h53v-632h276z" />
    <glyph glyph-name="Lacute" unicode="&#x139;" horiz-adv-x="462" 
d="M435 48v-48h-329v680h53v-632h276zM180 853h62l-83 -111h-53z" />
    <glyph glyph-name="Lcaron" unicode="&#x13d;" horiz-adv-x="462" 
d="M435 48v-48h-329v680h53v-632h276zM262 680h46l-39 -161h-43z" />
    <glyph glyph-name="uni013B" unicode="&#x13b;" horiz-adv-x="462" 
d="M435 48v-48h-329v680h53v-632h276zM247 -69h51v-79l-50 -47h-1v126z" />
    <glyph glyph-name="Lslash" unicode="&#x141;" horiz-adv-x="462" 
d="M435 48v-48h-329v279l-78 -47v45l78 47v356h53v-323l150 91v-46l-150 -91v-263h276z" />
    <glyph glyph-name="M" unicode="M" horiz-adv-x="793" 
d="M687 693v-693h-50v545l-240 -328h-2l-239 328v-545h-50v693h2l288 -396l289 396h2z" />
    <glyph glyph-name="N" unicode="N" horiz-adv-x="703" 
d="M597 680v-693h-2l-439 566v-553h-50v693h2l439 -566v553h50z" />
    <glyph glyph-name="Nacute" unicode="&#x143;" horiz-adv-x="703" 
d="M597 680v-693h-2l-439 566v-553h-50v693h2l439 -566v553h50zM399 853h62l-83 -111h-53z" />
    <glyph glyph-name="Ncaron" unicode="&#x147;" horiz-adv-x="703" 
d="M597 680v-693h-2l-439 566v-553h-50v693h2l439 -566v553h50zM472 853l-88 -111h-64l-88 111h51l69 -81l69 81h51z" />
    <glyph glyph-name="uni0145" unicode="&#x145;" horiz-adv-x="703" 
d="M597 680v-693h-2l-439 566v-553h-50v693h2l439 -566v553h50zM327 -69h51v-79l-50 -47h-1v126z" />
    <glyph glyph-name="Eng" unicode="&#x14a;" horiz-adv-x="703" 
d="M376.5 -207q-26.5 5 -46.5 13v48q42 -19 96 -19h6q56 0 84 33t28 88v96l-388 500v-552h-50v693h2l439 -566v553h50v-726q0 -76 -43 -121t-120 -45h-5q-26 0 -52.5 5z" />
    <glyph glyph-name="Ntilde" unicode="&#xd1;" horiz-adv-x="703" 
d="M597 680v-693h-2l-439 566v-553h-50v693h2l439 -566v553h50zM234.5 807q17.5 23 49.5 23q31 0 68 -20l21 -11q32 -15 48 -15q27 0 30 46h37q-5 -87 -67 -87q-25 0 -69 22l-22 11q-23 13 -46 13q-28 0 -31 -46h-37q1 41 18.5 64z" />
    <glyph glyph-name="O" unicode="O" horiz-adv-x="685" 
d="M199 26q-63 38 -99.5 110t-36.5 169v70q0 97 36.5 169t99.5 110t140 38h7q77 0 139.5 -38t99 -110t36.5 -169v-70q0 -97 -36.5 -169t-99 -110t-139.5 -38h-7q-77 0 -140 38zM346 35q61 0 107 28.5t73 69.5t35 81q4 29 4 126t-4 126q-8 40 -35 81t-73 69.5t-107 28.5h-7
q-61 0 -107.5 -28.5t-73.5 -70t-35 -80.5q-3 -33 -3 -126t3 -126q8 -39 35 -80.5t73.5 -70t107.5 -28.5h7z" />
    <glyph glyph-name="Oacute" unicode="&#xd3;" horiz-adv-x="685" 
d="M199 26q-63 38 -99.5 110t-36.5 169v70q0 97 36.5 169t99.5 110t140 38h7q77 0 139.5 -38t99 -110t36.5 -169v-70q0 -97 -36.5 -169t-99 -110t-139.5 -38h-7q-77 0 -140 38zM346 35q61 0 107 28.5t73 69.5t35 81q4 29 4 126t-4 126q-8 40 -35 81t-73 69.5t-107 28.5h-7
q-61 0 -107.5 -28.5t-73.5 -70t-35 -80.5q-3 -33 -3 -126t3 -126q8 -39 35 -80.5t73.5 -70t107.5 -28.5h7zM390 853h62l-83 -111h-53z" />
    <glyph glyph-name="Ocircumflex" unicode="&#xd4;" horiz-adv-x="685" 
d="M199 26q-63 38 -99.5 110t-36.5 169v70q0 97 36.5 169t99.5 110t140 38h7q77 0 139.5 -38t99 -110t36.5 -169v-70q0 -97 -36.5 -169t-99 -110t-139.5 -38h-7q-77 0 -140 38zM346 35q61 0 107 28.5t73 69.5t35 81q4 29 4 126t-4 126q-8 40 -35 81t-73 69.5t-107 28.5h-7
q-61 0 -107.5 -28.5t-73.5 -70t-35 -80.5q-3 -33 -3 -126t3 -126q8 -39 35 -80.5t73.5 -70t107.5 -28.5h7zM411 742l-69 81l-69 -81h-51l88 111h64l88 -111h-51z" />
    <glyph glyph-name="Odieresis" unicode="&#xd6;" horiz-adv-x="685" 
d="M199 26q-63 38 -99.5 110t-36.5 169v70q0 97 36.5 169t99.5 110t140 38h7q77 0 139.5 -38t99 -110t36.5 -169v-70q0 -97 -36.5 -169t-99 -110t-139.5 -38h-7q-77 0 -140 38zM346 35q61 0 107 28.5t73 69.5t35 81q4 29 4 126t-4 126q-8 40 -35 81t-73 69.5t-107 28.5h-7
q-61 0 -107.5 -28.5t-73.5 -70t-35 -80.5q-3 -33 -3 -126t3 -126q8 -39 35 -80.5t73.5 -70t107.5 -28.5h7zM211 835h74v-83h-74v83zM401 835h73v-83h-73v83z" />
    <glyph glyph-name="Ograve" unicode="&#xd2;" horiz-adv-x="685" 
d="M199 26q-63 38 -99.5 110t-36.5 169v70q0 97 36.5 169t99.5 110t140 38h7q77 0 139.5 -38t99 -110t36.5 -169v-70q0 -97 -36.5 -169t-99 -110t-139.5 -38h-7q-77 0 -140 38zM346 35q61 0 107 28.5t73 69.5t35 81q4 29 4 126t-4 126q-8 40 -35 81t-73 69.5t-107 28.5h-7
q-61 0 -107.5 -28.5t-73.5 -70t-35 -80.5q-3 -33 -3 -126t3 -126q8 -39 35 -80.5t73.5 -70t107.5 -28.5h7zM233 853h62l74 -111h-53z" />
    <glyph glyph-name="Ohungarumlaut" unicode="&#x150;" horiz-adv-x="685" 
d="M199 26q-63 38 -99.5 110t-36.5 169v70q0 97 36.5 169t99.5 110t140 38h7q77 0 139.5 -38t99 -110t36.5 -169v-70q0 -97 -36.5 -169t-99 -110t-139.5 -38h-7q-77 0 -140 38zM346 35q61 0 107 28.5t73 69.5t35 81q4 29 4 126t-4 126q-8 40 -35 81t-73 69.5t-107 28.5h-7
q-61 0 -107.5 -28.5t-73.5 -70t-35 -80.5q-3 -33 -3 -126t3 -126q8 -39 35 -80.5t73.5 -70t107.5 -28.5h7zM309 853h57l-82 -111h-49zM452 853h57l-82 -111h-49z" />
    <glyph glyph-name="Omacron" unicode="&#x14c;" horiz-adv-x="685" 
d="M199 26q-63 38 -99.5 110t-36.5 169v70q0 97 36.5 169t99.5 110t140 38h7q77 0 139.5 -38t99 -110t36.5 -169v-70q0 -97 -36.5 -169t-99 -110t-139.5 -38h-7q-77 0 -140 38zM346 35q61 0 107 28.5t73 69.5t35 81q4 29 4 126t-4 126q-8 40 -35 81t-73 69.5t-107 28.5h-7
q-61 0 -107.5 -28.5t-73.5 -70t-35 -80.5q-3 -33 -3 -126t3 -126q8 -39 35 -80.5t73.5 -70t107.5 -28.5h7zM231 808h224v-46h-224v46z" />
    <glyph glyph-name="Oslash" unicode="&#xd8;" horiz-adv-x="685" 
d="M602 501q19 -57 19 -126v-70q0 -97 -36.5 -169t-99 -110t-139.5 -38h-7q-103 0 -177 66l-38 -54h-44l56 80q-35 42 -54 99t-19 126v70q0 97 36.5 169t99.5 110t140 38h7q50 0 95.5 -17t81.5 -49l38 54h44l-57 -80q35 -42 54 -99zM166 122l328 463q-60 60 -148 60h-7
q-61 0 -107.5 -28.5t-73.5 -70t-35 -80.5q-3 -33 -3 -126t3 -126q11 -50 43 -92zM565 340q0 97 -4 126q-8 45 -43 92l-327 -464q28 -27 65.5 -43t82.5 -16h7q61 0 107 28.5t73 69.5t35 81q4 29 4 126z" />
    <glyph glyph-name="Otilde" unicode="&#xd5;" horiz-adv-x="685" 
d="M199 26q-63 38 -99.5 110t-36.5 169v70q0 97 36.5 169t99.5 110t140 38h7q77 0 139.5 -38t99 -110t36.5 -169v-70q0 -97 -36.5 -169t-99 -110t-139.5 -38h-7q-77 0 -140 38zM346 35q61 0 107 28.5t73 69.5t35 81q4 29 4 126t-4 126q-8 40 -35 81t-73 69.5t-107 28.5h-7
q-61 0 -107.5 -28.5t-73.5 -70t-35 -80.5q-3 -33 -3 -126t3 -126q8 -39 35 -80.5t73.5 -70t107.5 -28.5h7zM224.5 807q17.5 23 49.5 23q31 0 68 -20l21 -11q32 -15 48 -15q27 0 30 46h37q-5 -87 -67 -87q-25 0 -69 22l-22 11q-23 13 -46 13q-28 0 -31 -46h-37q1 41 18.5 64z
" />
    <glyph glyph-name="OE" unicode="&#x152;" horiz-adv-x="953" 
d="M888 48v-48h-354v68q-37 -39 -85.5 -59.5t-103.5 -20.5h-7q-77 0 -139.5 38t-99 110t-36.5 169v70q0 97 36.5 169t99 110t139.5 38h7q55 0 104 -20t85 -59v67h349v-48h-295v-248h268v-48h-268v-288h300zM458.5 66.5q47.5 31.5 75.5 79.5v388q-27 48 -75.5 79.5
t-112.5 31.5h-7q-61 0 -107.5 -28.5t-73.5 -70t-35 -80.5q-3 -33 -3 -126t3 -126q8 -39 35 -80.5t73.5 -70t107.5 -28.5h7q65 0 112.5 31.5z" />
    <glyph glyph-name="P" unicode="P" horiz-adv-x="537" 
d="M390 657.5q45 -22.5 73.5 -64t28.5 -97.5v-10q0 -56 -28.5 -97.5t-73.5 -64t-95 -22.5h-137v-302h-52v680h189q50 0 95 -22.5zM436 491q0 25 -2 45q-9 41 -48.5 69t-92.5 28h-135v-284h135q53 0 92.5 28.5t48.5 69.5q2 20 2 44z" />
    <glyph glyph-name="Thorn" unicode="&#xde;" horiz-adv-x="536" 
d="M390 515.5q45 -22.5 73 -64t28 -97.5v-10q0 -56 -28 -97.5t-73 -64t-95 -22.5h-136v-160h-53v680h53v-142h136q50 0 95 -22.5zM437 349q0 25 -2 45q-10 41 -49.5 69t-92.5 28h-134v-283h134q53 0 92.5 28t49.5 69q2 20 2 44z" />
    <glyph glyph-name="Q" unicode="Q" horiz-adv-x="685" 
d="M621 305q0 -76 -23 -137t-64 -104l80 -114h-57l-59 84q-67 -46 -152 -46h-7q-77 0 -140 38t-99.5 110t-36.5 169v70q0 97 36.5 169t99.5 110t140 38h7q77 0 139.5 -38t99 -110t36.5 -169v-70zM565 340q0 97 -4 126q-8 40 -35 81t-73 69.5t-107 28.5h-7
q-61 0 -107.5 -28.5t-73.5 -70t-35 -80.5q-3 -33 -3 -126t3 -126q8 -39 35 -80.5t73.5 -70t107.5 -28.5h7q68 0 124 39l-101 143h57l79 -112q22 25 36 53.5t20 55.5q4 29 4 126z" />
    <glyph glyph-name="R" unicode="R" horiz-adv-x="554" 
d="M464 0l-306 360v-360h-52v680h170q49 0 92.5 -21.5t70.5 -61.5t27 -94v-10q0 -53 -26.5 -93t-69.5 -61t-90 -21h-22l272 -318h-66zM274 362q51 0 88.5 25.5t47.5 65.5q2 18 2 44t-2 44q-10 40 -47.5 66t-88.5 26h-116v-271h116z" />
    <glyph glyph-name="Racute" unicode="&#x154;" horiz-adv-x="554" 
d="M464 0l-306 360v-360h-52v680h170q49 0 92.5 -21.5t70.5 -61.5t27 -94v-10q0 -53 -26.5 -93t-69.5 -61t-90 -21h-22l272 -318h-66zM274 362q51 0 88.5 25.5t47.5 65.5q2 18 2 44t-2 44q-10 40 -47.5 66t-88.5 26h-116v-271h116zM318 853h62l-83 -111h-53z" />
    <glyph glyph-name="Rcaron" unicode="&#x158;" horiz-adv-x="554" 
d="M464 0l-306 360v-360h-52v680h170q49 0 92.5 -21.5t70.5 -61.5t27 -94v-10q0 -53 -26.5 -93t-69.5 -61t-90 -21h-22l272 -318h-66zM274 362q51 0 88.5 25.5t47.5 65.5q2 18 2 44t-2 44q-10 40 -47.5 66t-88.5 26h-116v-271h116zM391 853l-88 -111h-64l-88 111h51l69 -81
l69 81h51z" />
    <glyph glyph-name="uni0156" unicode="&#x156;" horiz-adv-x="554" 
d="M464 0l-306 360v-360h-52v680h170q49 0 92.5 -21.5t70.5 -61.5t27 -94v-10q0 -53 -26.5 -93t-69.5 -61t-90 -21h-22l272 -318h-66zM274 362q51 0 88.5 25.5t47.5 65.5q2 18 2 44t-2 44q-10 40 -47.5 66t-88.5 26h-116v-271h116zM249 -69h51v-79l-50 -47h-1v126z" />
    <glyph glyph-name="S" unicode="S" horiz-adv-x="517" 
d="M156.5 10.5q-47.5 22.5 -77 63t-33.5 92.5h53q8 -59 53 -95.5t108 -36.5h2q67 0 108 40.5t41 105.5q0 13 -1 19q-10 30 -33 54t-76 59l-102 65q-43 28 -66.5 48t-38.5 46.5t-15 62.5v3q0 43 22.5 78.5t61 56t84.5 20.5h6q56 0 104 -31.5t75 -77.5l-41 -27q-28 41 -62 65
t-80 24h-2q-56 0 -89.5 -36t-29.5 -94q8 -24 27.5 -42t68.5 -50l107 -69q43 -28 69 -50t43 -53t17 -74v-3q0 -54 -26 -96.5t-71 -66t-101 -23.5h-3q-55 0 -102.5 22.5z" />
    <glyph glyph-name="Sacute" unicode="&#x15a;" horiz-adv-x="517" 
d="M156.5 10.5q-47.5 22.5 -77 63t-33.5 92.5h53q8 -59 53 -95.5t108 -36.5h2q67 0 108 40.5t41 105.5q0 13 -1 19q-10 30 -33 54t-76 59l-102 65q-43 28 -66.5 48t-38.5 46.5t-15 62.5v3q0 43 22.5 78.5t61 56t84.5 20.5h6q56 0 104 -31.5t75 -77.5l-41 -27q-28 41 -62 65
t-80 24h-2q-56 0 -89.5 -36t-29.5 -94q8 -24 27.5 -42t68.5 -50l107 -69q43 -28 69 -50t43 -53t17 -74v-3q0 -54 -26 -96.5t-71 -66t-101 -23.5h-3q-55 0 -102.5 22.5zM306 853h62l-83 -111h-53z" />
    <glyph glyph-name="Scaron" unicode="&#x160;" horiz-adv-x="517" 
d="M156.5 10.5q-47.5 22.5 -77 63t-33.5 92.5h53q8 -59 53 -95.5t108 -36.5h2q67 0 108 40.5t41 105.5q0 13 -1 19q-10 30 -33 54t-76 59l-102 65q-43 28 -66.5 48t-38.5 46.5t-15 62.5v3q0 43 22.5 78.5t61 56t84.5 20.5h6q56 0 104 -31.5t75 -77.5l-41 -27q-28 41 -62 65
t-80 24h-2q-56 0 -89.5 -36t-29.5 -94q8 -24 27.5 -42t68.5 -50l107 -69q43 -28 69 -50t43 -53t17 -74v-3q0 -54 -26 -96.5t-71 -66t-101 -23.5h-3q-55 0 -102.5 22.5zM379 853l-88 -111h-64l-88 111h51l69 -81l69 81h51z" />
    <glyph glyph-name="Scedilla" unicode="&#x15e;" horiz-adv-x="517" 
d="M400 304q26 -22 43 -53t17 -74v-3q0 -52 -24 -93.5t-66.5 -66t-95.5 -26.5l-23 -54q41 -3 66.5 -24.5t25.5 -58.5v-3q0 -40 -28.5 -62t-73.5 -22h-4q-48 0 -82 23v38q30 -26 81 -26h4q25 0 41.5 12.5t16.5 32.5v11q0 19 -18.5 31.5t-46.5 12.5h-35l38 90q-77 7 -131 55.5
t-59 121.5h53q8 -59 53 -95.5t108 -36.5h2q67 0 108 40.5t41 105.5q0 13 -1 19q-10 30 -33 54t-76 59l-102 65q-43 28 -66.5 48t-38.5 46.5t-15 62.5v3q0 43 22.5 78.5t61 56t84.5 20.5h6q56 0 104 -31.5t75 -77.5l-41 -27q-28 41 -62 65t-80 24h-2q-56 0 -89.5 -36
t-29.5 -94q8 -24 27.5 -42t68.5 -50l107 -69q43 -28 69 -50z" />
    <glyph glyph-name="uni0218" unicode="&#x218;" horiz-adv-x="517" 
d="M156.5 10.5q-47.5 22.5 -77 63t-33.5 92.5h53q8 -59 53 -95.5t108 -36.5h2q67 0 108 40.5t41 105.5q0 13 -1 19q-10 30 -33 54t-76 59l-102 65q-43 28 -66.5 48t-38.5 46.5t-15 62.5v3q0 43 22.5 78.5t61 56t84.5 20.5h6q56 0 104 -31.5t75 -77.5l-41 -27q-28 41 -62 65
t-80 24h-2q-56 0 -89.5 -36t-29.5 -94q8 -24 27.5 -42t68.5 -50l107 -69q43 -28 69 -50t43 -53t17 -74v-3q0 -54 -26 -96.5t-71 -66t-101 -23.5h-3q-55 0 -102.5 22.5zM234 -69h51v-79l-50 -47h-1v126z" />
    <glyph glyph-name="uni1E9E" unicode="&#x1e9e;" horiz-adv-x="633" 
d="M540.5 336.5q51.5 -48.5 51.5 -127.5v-7q0 -60 -27.5 -106.5t-75.5 -73t-107 -26.5h-5q-26 0 -55 3.5t-47 9.5v44q16 -5 44.5 -8.5t53.5 -3.5h5q62 0 102.5 32.5t53.5 80.5q2 26 2 50q0 25 -2 51q-12 38 -56 70.5t-101 56.5l-59 26v2l138 222h-298v-632h-52v680h436
l-157 -247l15 -7q89 -41 140.5 -89.5z" />
    <glyph glyph-name="T" unicode="T" horiz-adv-x="485" 
d="M453 632h-184v-632h-53v632h-184v48h421v-48z" />
    <glyph glyph-name="Tbar" unicode="&#x166;" horiz-adv-x="485" 
d="M269 632v-271h127v-42h-127v-319h-53v319h-126v42h126v271h-184v48h421v-48h-184z" />
    <glyph glyph-name="Tcaron" unicode="&#x164;" horiz-adv-x="485" 
d="M453 632h-184v-632h-53v632h-184v48h421v-48zM362 853l-88 -111h-64l-88 111h51l69 -81l69 81h51z" />
    <glyph glyph-name="uni0162" unicode="&#x162;" horiz-adv-x="485" 
d="M263 0l-28 -66q41 -3 66.5 -24.5t25.5 -58.5v-3q0 -40 -28.5 -62t-73.5 -22h-4q-48 0 -82 23v38q30 -26 81 -26h4q25 0 41.5 12.5t16.5 32.5v11q0 19 -18.5 31.5t-46.5 12.5h-35l43 101h-9v632h-184v48h421v-48h-184v-632h-6z" />
    <glyph glyph-name="uni021A" unicode="&#x21a;" horiz-adv-x="485" 
d="M453 632h-184v-632h-53v632h-184v48h421v-48zM217 -69h51v-79l-50 -47h-1v126z" />
    <glyph glyph-name="U" unicode="U" horiz-adv-x="665" 
d="M211 19.5q-53 31.5 -83.5 86t-30.5 118.5v456h53v-491q5 -33 27.5 -69t61.5 -60.5t90 -24.5h7q52 0 91 24.5t61 60.5t27 69v491h53v-456q0 -64 -30.5 -118.5t-83.5 -86t-118 -31.5h-7q-65 0 -118 31.5z" />
    <glyph glyph-name="Uacute" unicode="&#xda;" horiz-adv-x="665" 
d="M211 19.5q-53 31.5 -83.5 86t-30.5 118.5v456h53v-491q5 -33 27.5 -69t61.5 -60.5t90 -24.5h7q52 0 91 24.5t61 60.5t27 69v491h53v-456q0 -64 -30.5 -118.5t-83.5 -86t-118 -31.5h-7q-65 0 -118 31.5zM380 853h62l-83 -111h-53z" />
    <glyph glyph-name="Ucircumflex" unicode="&#xdb;" horiz-adv-x="665" 
d="M211 19.5q-53 31.5 -83.5 86t-30.5 118.5v456h53v-491q5 -33 27.5 -69t61.5 -60.5t90 -24.5h7q52 0 91 24.5t61 60.5t27 69v491h53v-456q0 -64 -30.5 -118.5t-83.5 -86t-118 -31.5h-7q-65 0 -118 31.5zM402 742l-69 81l-69 -81h-51l88 111h64l88 -111h-51z" />
    <glyph glyph-name="Udieresis" unicode="&#xdc;" horiz-adv-x="665" 
d="M211 19.5q-53 31.5 -83.5 86t-30.5 118.5v456h53v-491q5 -33 27.5 -69t61.5 -60.5t90 -24.5h7q52 0 91 24.5t61 60.5t27 69v491h53v-456q0 -64 -30.5 -118.5t-83.5 -86t-118 -31.5h-7q-65 0 -118 31.5zM201 835h74v-83h-74v83zM391 835h73v-83h-73v83z" />
    <glyph glyph-name="Ugrave" unicode="&#xd9;" horiz-adv-x="665" 
d="M211 19.5q-53 31.5 -83.5 86t-30.5 118.5v456h53v-491q5 -33 27.5 -69t61.5 -60.5t90 -24.5h7q52 0 91 24.5t61 60.5t27 69v491h53v-456q0 -64 -30.5 -118.5t-83.5 -86t-118 -31.5h-7q-65 0 -118 31.5zM223 853h62l74 -111h-53z" />
    <glyph glyph-name="Uhungarumlaut" unicode="&#x170;" horiz-adv-x="665" 
d="M211 19.5q-53 31.5 -83.5 86t-30.5 118.5v456h53v-491q5 -33 27.5 -69t61.5 -60.5t90 -24.5h7q52 0 91 24.5t61 60.5t27 69v491h53v-456q0 -64 -30.5 -118.5t-83.5 -86t-118 -31.5h-7q-65 0 -118 31.5zM300 853h57l-82 -111h-49zM443 853h57l-82 -111h-49z" />
    <glyph glyph-name="Umacron" unicode="&#x16a;" horiz-adv-x="665" 
d="M211 19.5q-53 31.5 -83.5 86t-30.5 118.5v456h53v-491q5 -33 27.5 -69t61.5 -60.5t90 -24.5h7q52 0 91 24.5t61 60.5t27 69v491h53v-456q0 -64 -30.5 -118.5t-83.5 -86t-118 -31.5h-7q-65 0 -118 31.5zM221 808h224v-46h-224v46z" />
    <glyph glyph-name="Uogonek" unicode="&#x172;" horiz-adv-x="665" 
d="M568 680v-456q0 -61 -27 -112.5t-75 -84.5l-47 -46q-48 -46 -48 -83v-3q0 -19 13 -31t32 -12h4q16 0 33 5v-35q-18 -6 -37 -6h-4q-41 0 -63.5 19.5t-22.5 54.5v3q0 46 55 99q-19 -4 -45 -4h-7q-65 0 -118 31.5t-83.5 86t-30.5 118.5v456h53v-491q5 -33 27.5 -69
t61.5 -60.5t90 -24.5h7q52 0 91 24.5t61 60.5t27 69v491h53z" />
    <glyph glyph-name="Uring" unicode="&#x16e;" horiz-adv-x="665" 
d="M211 19.5q-53 31.5 -83.5 86t-30.5 118.5v456h53v-491q5 -33 27.5 -69t61.5 -60.5t90 -24.5h7q52 0 91 24.5t61 60.5t27 69v491h53v-456q0 -64 -30.5 -118.5t-83.5 -86t-118 -31.5h-7q-65 0 -118 31.5zM274 706.5q-25 24.5 -25 58.5q0 33 25 57.5t59 24.5t58.5 -24.5
t24.5 -57.5q0 -34 -24.5 -58.5t-58.5 -24.5t-59 24.5zM367 731q14 14 14 34q0 19 -14 33t-34 14t-34 -14t-14 -33q0 -20 14 -34t34 -14t34 14z" />
    <glyph glyph-name="V" unicode="V" horiz-adv-x="620" 
d="M594 680l-283 -705h-2l-284 705h54l232 -581l232 581h51z" />
    <glyph glyph-name="W" unicode="W" horiz-adv-x="927" 
d="M894 680l-237 -705h-2l-191 564l-190 -564h-2l-239 705h53l189 -566l189 566h1l191 -566l186 566h52z" />
    <glyph glyph-name="Wacute" unicode="&#x1e82;" horiz-adv-x="927" 
d="M894 680l-237 -705h-2l-191 564l-190 -564h-2l-239 705h53l189 -566l189 566h1l191 -566l186 566h52zM510 853h62l-83 -111h-53z" />
    <glyph glyph-name="Wcircumflex" unicode="&#x174;" horiz-adv-x="927" 
d="M894 680l-237 -705h-2l-191 564l-190 -564h-2l-239 705h53l189 -566l189 566h1l191 -566l186 566h52zM532 742l-69 81l-69 -81h-51l88 111h64l88 -111h-51z" />
    <glyph glyph-name="Wdieresis" unicode="&#x1e84;" horiz-adv-x="927" 
d="M894 680l-237 -705h-2l-191 564l-190 -564h-2l-239 705h53l189 -566l189 566h1l191 -566l186 566h52zM332 835h74v-83h-74v83zM522 835h73v-83h-73v83z" />
    <glyph glyph-name="Wgrave" unicode="&#x1e80;" horiz-adv-x="927" 
d="M894 680l-237 -705h-2l-191 564l-190 -564h-2l-239 705h53l189 -566l189 566h1l191 -566l186 566h52zM354 853h62l74 -111h-53z" />
    <glyph glyph-name="X" unicode="X" horiz-adv-x="606" 
d="M523 0l-221 316l-222 -316h-60l250 350l-236 330h63l208 -297l207 297h60l-233 -330l247 -350h-63z" />
    <glyph glyph-name="Y" unicode="Y" horiz-adv-x="576" 
d="M315 299v-299h-53v297l-237 383h59l205 -333l204 333h58z" />
    <glyph glyph-name="Yacute" unicode="&#xdd;" horiz-adv-x="576" 
d="M315 299v-299h-53v297l-237 383h59l205 -333l204 333h58zM335 853h62l-83 -111h-53z" />
    <glyph glyph-name="Ycircumflex" unicode="&#x176;" horiz-adv-x="576" 
d="M315 299v-299h-53v297l-237 383h59l205 -333l204 333h58zM357 742l-69 81l-69 -81h-51l88 111h64l88 -111h-51z" />
    <glyph glyph-name="Ydieresis" unicode="&#x178;" horiz-adv-x="576" 
d="M315 299v-299h-53v297l-237 383h59l205 -333l204 333h58zM156 835h74v-83h-74v83zM346 835h73v-83h-73v83z" />
    <glyph glyph-name="Ygrave" unicode="&#x1ef2;" horiz-adv-x="576" 
d="M315 299v-299h-53v297l-237 383h59l205 -333l204 333h58zM178 853h62l74 -111h-53z" />
    <glyph glyph-name="Z" unicode="Z" horiz-adv-x="549" 
d="M527 678l-416 -630h391v-48h-480v2l415 630h-392v48h482v-2z" />
    <glyph glyph-name="Zacute" unicode="&#x179;" horiz-adv-x="549" 
d="M527 678l-416 -630h391v-48h-480v2l415 630h-392v48h482v-2zM322 853h62l-83 -111h-53z" />
    <glyph glyph-name="Zcaron" unicode="&#x17d;" horiz-adv-x="549" 
d="M527 678l-416 -630h391v-48h-480v2l415 630h-392v48h482v-2zM395 853l-88 -111h-64l-88 111h51l69 -81l69 81h51z" />
    <glyph glyph-name="Zdotaccent" unicode="&#x17b;" horiz-adv-x="549" 
d="M527 678l-416 -630h391v-48h-480v2l415 630h-392v48h482v-2zM235 835h81v-83h-81v83z" />
    <glyph glyph-name="a" unicode="a" horiz-adv-x="542" 
d="M446 479v-479h-49v57q-25 -31 -61.5 -49t-78.5 -18h-6q-56 0 -102 29t-72.5 83t-26.5 126v22q0 72 26.5 126.5t72.5 83.5t102 29h6q42 0 78.5 -18.5t61.5 -49.5v58h49zM341.5 57.5q33.5 22.5 52.5 57.5v248q-19 35 -52.5 58t-78.5 23h-7q-59 0 -97 -36t-50 -83
q-4 -30 -4 -85q0 -53 4 -87q12 -46 50.5 -82t96.5 -36h7q45 0 78.5 22.5z" />
    <glyph glyph-name="aacute" unicode="&#xe1;" horiz-adv-x="542" 
d="M446 479v-479h-49v57q-25 -31 -61.5 -49t-78.5 -18h-6q-56 0 -102 29t-72.5 83t-26.5 126v22q0 72 26.5 126.5t72.5 83.5t102 29h6q42 0 78.5 -18.5t61.5 -49.5v58h49zM341.5 57.5q33.5 22.5 52.5 57.5v248q-19 35 -52.5 58t-78.5 23h-7q-59 0 -97 -36t-50 -83
q-4 -30 -4 -85q0 -53 4 -87q12 -46 50.5 -82t96.5 -36h7q45 0 78.5 22.5zM328 710h59l-91 -137h-51z" />
    <glyph glyph-name="abreve" unicode="&#x103;" horiz-adv-x="542" 
d="M446 479v-479h-49v57q-25 -31 -61.5 -49t-78.5 -18h-6q-56 0 -102 29t-72.5 83t-26.5 126v22q0 72 26.5 126.5t72.5 83.5t102 29h6q42 0 78.5 -18.5t61.5 -49.5v58h49zM341.5 57.5q33.5 22.5 52.5 57.5v248q-19 35 -52.5 58t-78.5 23h-7q-59 0 -97 -36t-50 -83
q-4 -30 -4 -85q0 -53 4 -87q12 -46 50.5 -82t96.5 -36h7q45 0 78.5 22.5zM186 603q-32 30 -34 74h39q2 -25 22 -44t55 -19q34 0 54 19t22 44h39q-2 -44 -33.5 -74t-81.5 -30t-82 30z" />
    <glyph glyph-name="acircumflex" unicode="&#xe2;" horiz-adv-x="542" 
d="M446 479v-479h-49v57q-25 -31 -61.5 -49t-78.5 -18h-6q-56 0 -102 29t-72.5 83t-26.5 126v22q0 72 26.5 126.5t72.5 83.5t102 29h6q42 0 78.5 -18.5t61.5 -49.5v58h49zM341.5 57.5q33.5 22.5 52.5 57.5v248q-19 35 -52.5 58t-78.5 23h-7q-59 0 -97 -36t-50 -83
q-4 -30 -4 -85q0 -53 4 -87q12 -46 50.5 -82t96.5 -36h7q45 0 78.5 22.5zM343 573l-75 104l-76 -104h-51l94 137h64l94 -137h-50z" />
    <glyph glyph-name="adieresis" unicode="&#xe4;" horiz-adv-x="542" 
d="M446 479v-479h-49v57q-25 -31 -61.5 -49t-78.5 -18h-6q-56 0 -102 29t-72.5 83t-26.5 126v22q0 72 26.5 126.5t72.5 83.5t102 29h6q42 0 78.5 -18.5t61.5 -49.5v58h49zM341.5 57.5q33.5 22.5 52.5 57.5v248q-19 35 -52.5 58t-78.5 23h-7q-59 0 -97 -36t-50 -83
q-4 -30 -4 -85q0 -53 4 -87q12 -46 50.5 -82t96.5 -36h7q45 0 78.5 22.5zM145 683h74v-82h-74v82zM316 683h73v-82h-73v82z" />
    <glyph glyph-name="agrave" unicode="&#xe0;" horiz-adv-x="542" 
d="M446 479v-479h-49v57q-25 -31 -61.5 -49t-78.5 -18h-6q-56 0 -102 29t-72.5 83t-26.5 126v22q0 72 26.5 126.5t72.5 83.5t102 29h6q42 0 78.5 -18.5t61.5 -49.5v58h49zM341.5 57.5q33.5 22.5 52.5 57.5v248q-19 35 -52.5 58t-78.5 23h-7q-59 0 -97 -36t-50 -83
q-4 -30 -4 -85q0 -53 4 -87q12 -46 50.5 -82t96.5 -36h7q45 0 78.5 22.5zM147 710h59l83 -137h-51z" />
    <glyph glyph-name="amacron" unicode="&#x101;" horiz-adv-x="542" 
d="M446 479v-479h-49v57q-25 -31 -61.5 -49t-78.5 -18h-6q-56 0 -102 29t-72.5 83t-26.5 126v22q0 72 26.5 126.5t72.5 83.5t102 29h6q42 0 78.5 -18.5t61.5 -49.5v58h49zM341.5 57.5q33.5 22.5 52.5 57.5v248q-19 35 -52.5 58t-78.5 23h-7q-59 0 -97 -36t-50 -83
q-4 -30 -4 -85q0 -53 4 -87q12 -46 50.5 -82t96.5 -36h7q45 0 78.5 22.5zM155 657h224v-46h-224v46z" />
    <glyph glyph-name="aogonek" unicode="&#x105;" horiz-adv-x="542" 
d="M377.5 -61q-13.5 -20 -13.5 -41v-3q0 -19 13 -31t32 -12h4q16 0 33 5v-35q-18 -6 -37 -6h-4q-41 0 -63.5 19.5t-22.5 54.5v3q0 53 72 103l6 4v57q-25 -31 -61.5 -49t-78.5 -18h-6q-56 0 -102 29t-72.5 83t-26.5 126v22q0 72 26.5 126.5t72.5 83.5t102 29h6
q42 0 78.5 -18.5t61.5 -49.5v58h49v-479l-33 -24q-22 -17 -35.5 -37zM341.5 57.5q33.5 22.5 52.5 57.5v248q-19 35 -52.5 58t-78.5 23h-7q-59 0 -97 -36t-50 -83q-4 -30 -4 -85q0 -53 4 -87q12 -46 50.5 -82t96.5 -36h7q45 0 78.5 22.5z" />
    <glyph glyph-name="aring" unicode="&#xe5;" horiz-adv-x="542" 
d="M446 479v-479h-49v57q-25 -31 -61.5 -49t-78.5 -18h-6q-56 0 -102 29t-72.5 83t-26.5 126v22q0 72 26.5 126.5t72.5 83.5t102 29h6q42 0 78.5 -18.5t61.5 -49.5v58h49zM341.5 57.5q33.5 22.5 52.5 57.5v248q-19 35 -52.5 58t-78.5 23h-7q-59 0 -97 -36t-50 -83
q-4 -30 -4 -85q0 -53 4 -87q12 -46 50.5 -82t96.5 -36h7q45 0 78.5 22.5zM207 582.5q-26 25.5 -26 59.5q0 35 26 60t61 25t60.5 -25t25.5 -60t-25.5 -60t-60.5 -25t-61 25.5zM303.5 607.5q14.5 14.5 14.5 34.5q0 21 -14.5 35.5t-35.5 14.5t-36 -14.5t-15 -35.5
q0 -20 15 -34.5t36 -14.5t35.5 14.5z" />
    <glyph glyph-name="atilde" unicode="&#xe3;" horiz-adv-x="542" 
d="M446 479v-479h-49v57q-25 -31 -61.5 -49t-78.5 -18h-6q-56 0 -102 29t-72.5 83t-26.5 126v22q0 72 26.5 126.5t72.5 83.5t102 29h6q42 0 78.5 -18.5t61.5 -49.5v58h49zM341.5 57.5q33.5 22.5 52.5 57.5v248q-19 35 -52.5 58t-78.5 23h-7q-59 0 -97 -36t-50 -83
q-4 -30 -4 -85q0 -53 4 -87q12 -46 50.5 -82t96.5 -36h7q45 0 78.5 22.5zM149.5 662q17.5 26 51.5 26q31 0 65 -21l21 -12q17 -10 27 -14.5t19 -4.5q28 0 33 52h36q-2 -43 -18.5 -69t-49.5 -26q-27 0 -66 23l-22 13q-27 16 -44 16q-15 0 -24 -14t-11 -38h-36q1 43 18.5 69z
" />
    <glyph glyph-name="ae" unicode="&#xe6;" horiz-adv-x="800" 
d="M407 243q0 -42 3 -80q5 -32 24 -62t51 -49.5t72 -19.5h6q45 0 79 23.5t52 64.5h52q-22 -64 -71 -98t-113 -34h-5q-47 0 -88.5 21t-69.5 60q-68 -80 -174 -80h-5q-75 0 -122.5 39t-47.5 106v9q0 65 52 102.5t131 37.5h120v94q-12 29 -40 50t-73 21h-5q-42 0 -73.5 -21.5
t-41.5 -54.5h-55q17 55 63.5 87t106.5 32h5q54 0 95 -24t59 -64q28 42 68.5 65t88.5 23h5q54 0 98 -27.5t70 -77t26 -114.5q0 -20 -1 -29h-342zM481.5 428q-30.5 -19 -49 -48t-22.5 -59l-2 -38h288v34q-8 52 -46 91t-94 39h-5q-39 0 -69.5 -19zM309 53.5q40 19.5 68 55.5
q-24 54 -24 121v14h-116q-51 0 -86.5 -20.5t-44.5 -46.5q-1 -13 -1 -39q0 -24 1 -37q9 -27 38.5 -47t76.5 -20h5q43 0 83 19.5z" />
    <glyph glyph-name="b" unicode="b" horiz-adv-x="547" 
d="M395 460q46 -29 73 -83.5t27 -126.5v-22q0 -72 -27 -126t-73 -83t-102 -29h-7q-42 0 -79 18t-62 49v-57h-49v710h52v-286q25 30 61 47.5t77 17.5h7q56 0 102 -29zM440 240q0 63 -3 85q-13 47 -51.5 83t-98.5 36h-6q-46 0 -80 -23t-53 -58v-248q19 -35 53 -57.5t80 -22.5
h6q60 0 98.5 35.5t51.5 82.5q3 26 3 87z" />
    <glyph glyph-name="c" unicode="c" horiz-adv-x="452" 
d="M156.5 17q-49.5 29 -78 84t-28.5 129v19q0 74 28.5 128.5t77.5 83.5t110 29h5q43 0 78 -15.5t57 -36.5v-58q-63 65 -135 65h-5q-60 0 -102 -36t-55 -81q-4 -32 -4 -88q0 -55 4 -89q13 -45 55 -81t102 -36h5q41 0 75.5 19t59.5 46v-59q-23 -21 -57.5 -36.5t-77.5 -15.5h-5
q-60 0 -109.5 29z" />
    <glyph glyph-name="cacute" unicode="&#x107;" horiz-adv-x="452" 
d="M156.5 17q-49.5 29 -78 84t-28.5 129v19q0 74 28.5 128.5t77.5 83.5t110 29h5q43 0 78 -15.5t57 -36.5v-58q-63 65 -135 65h-5q-60 0 -102 -36t-55 -81q-4 -32 -4 -88q0 -55 4 -89q13 -45 55 -81t102 -36h5q41 0 75.5 19t59.5 46v-59q-23 -21 -57.5 -36.5t-77.5 -15.5h-5
q-60 0 -109.5 29zM321 700h59l-91 -137h-51z" />
    <glyph glyph-name="ccaron" unicode="&#x10d;" horiz-adv-x="452" 
d="M156.5 17q-49.5 29 -78 84t-28.5 129v19q0 74 28.5 128.5t77.5 83.5t110 29h5q43 0 78 -15.5t57 -36.5v-58q-63 65 -135 65h-5q-60 0 -102 -36t-55 -81q-4 -32 -4 -88q0 -55 4 -89q13 -45 55 -81t102 -36h5q41 0 75.5 19t59.5 46v-59q-23 -21 -57.5 -36.5t-77.5 -15.5h-5
q-60 0 -109.5 29zM386 700l-94 -137h-64l-94 137h51l76 -104l75 104h50z" />
    <glyph glyph-name="ccedilla" unicode="&#xe7;" horiz-adv-x="452" 
d="M164 409q-42 -36 -55 -81q-4 -32 -4 -88q0 -55 4 -89q13 -45 55 -81t102 -36h5q41 0 75.5 19t59.5 46v-59q-22 -20 -56.5 -35.5t-76.5 -16.5l-23 -54q41 -3 66.5 -24.5t25.5 -58.5v-3q0 -40 -28.5 -62t-73.5 -22h-4q-48 0 -82 23v38q30 -26 81 -26h4q25 0 41.5 12.5
t16.5 32.5v11q0 19 -18.5 31.5t-46.5 12.5h-35l38 91q-81 11 -133 75t-52 165v19q0 74 28.5 128.5t77.5 83.5t110 29h5q43 0 78 -15.5t57 -36.5v-58q-63 65 -135 65h-5q-60 0 -102 -36z" />
    <glyph glyph-name="cdotaccent" unicode="&#x10b;" horiz-adv-x="452" 
d="M156.5 17q-49.5 29 -78 84t-28.5 129v19q0 74 28.5 128.5t77.5 83.5t110 29h5q43 0 78 -15.5t57 -36.5v-58q-63 65 -135 65h-5q-60 0 -102 -36t-55 -81q-4 -32 -4 -88q0 -55 4 -89q13 -45 55 -81t102 -36h5q41 0 75.5 19t59.5 46v-59q-23 -21 -57.5 -36.5t-77.5 -15.5h-5
q-60 0 -109.5 29zM220 673h81v-82h-81v82z" />
    <glyph glyph-name="d" unicode="d" horiz-adv-x="548" 
d="M452 710v-710h-50v57q-25 -31 -62 -49t-79 -18h-6q-56 0 -102.5 29t-73.5 83t-27 126v22q0 72 27 126.5t73.5 83.5t102.5 29h6q41 0 77.5 -18t61.5 -48v287h52zM347 58q34 23 53 58v246q-19 35 -53 58.5t-81 23.5h-6q-60 0 -98.5 -36t-50.5 -83q-4 -30 -4 -85
q0 -53 4 -87q12 -47 50.5 -82.5t98.5 -35.5h6q47 0 81 23z" />
    <glyph glyph-name="eth" unicode="&#xf0;" horiz-adv-x="531" 
d="M451.5 394.5q29.5 -76.5 29.5 -131.5v-59q0 -62 -28.5 -111.5t-77 -77t-107.5 -27.5h-5q-58 0 -107 27.5t-77.5 77t-28.5 111.5v7q0 62 28.5 111t76.5 77t106 28h5q40 0 80.5 -17.5t67.5 -48.5q-29 86 -90 169l-137 -45l-9 32l125 40q-55 68 -118 123h57q58 -46 107 -108
l100 32l9 -31l-88 -29q52 -73 81.5 -149.5zM425 207q0 38 -2 56q-10 47 -51 83t-104 36h-5q-63 0 -104 -36t-51 -83q-2 -18 -2 -56q0 -36 2 -56q10 -46 51 -82t104 -36h5q63 0 104 36t51 82q2 20 2 56z" />
    <glyph glyph-name="dcaron" unicode="&#x10f;" horiz-adv-x="613" 
d="M452 710v-710h-50v57q-25 -31 -62 -49t-79 -18h-6q-56 0 -102.5 29t-73.5 83t-27 126v22q0 72 27 126.5t73.5 83.5t102.5 29h6q41 0 77.5 -18t61.5 -48v287h52zM347 58q34 23 53 58v246q-19 35 -53 58.5t-81 23.5h-6q-60 0 -98.5 -36t-50.5 -83q-4 -30 -4 -85
q0 -53 4 -87q12 -47 50.5 -82.5t98.5 -35.5h6q47 0 81 23zM567 710h46l-39 -161h-43z" />
    <glyph glyph-name="dcroat" unicode="&#x111;" horiz-adv-x="548" 
d="M504 587h-52v-587h-50v57q-25 -31 -62 -49t-79 -18h-6q-56 0 -102.5 29t-73.5 83t-27 126v22q0 72 27 126.5t73.5 83.5t102.5 29h6q41 0 77.5 -18t61.5 -48v164h-130v32h130v91h52v-91h52v-32zM347 58q34 23 53 58v246q-19 35 -53 58.5t-81 23.5h-6q-60 0 -98.5 -36
t-50.5 -83q-4 -30 -4 -85q0 -53 4 -87q12 -47 50.5 -82.5t98.5 -35.5h6q47 0 81 23z" />
    <glyph glyph-name="e" unicode="e" horiz-adv-x="505" 
d="M105 242q0 -57 2 -79q5 -32 25 -62t52.5 -49.5t74.5 -19.5h5q46 0 81.5 23.5t53.5 64.5h52q-22 -64 -72 -98t-115 -34h-5q-58 0 -105.5 29t-75.5 84t-28 129v19q0 73 27 128t73.5 84.5t102.5 29.5h5q54 0 99 -27t71.5 -77t26.5 -115q0 -12 -2 -30h-348zM181.5 428
q-31.5 -19 -50.5 -48t-24 -60l-2 -37h297v34q-8 52 -47 91t-97 39h-5q-40 0 -71.5 -19z" />
    <glyph glyph-name="eacute" unicode="&#xe9;" horiz-adv-x="505" 
d="M105 242q0 -57 2 -79q5 -32 25 -62t52.5 -49.5t74.5 -19.5h5q46 0 81.5 23.5t53.5 64.5h52q-22 -64 -72 -98t-115 -34h-5q-58 0 -105.5 29t-75.5 84t-28 129v19q0 73 27 128t73.5 84.5t102.5 29.5h5q54 0 99 -27t71.5 -77t26.5 -115q0 -12 -2 -30h-348zM181.5 428
q-31.5 -19 -50.5 -48t-24 -60l-2 -37h297v34q-8 52 -47 91t-97 39h-5q-40 0 -71.5 -19zM320 710h59l-91 -137h-51z" />
    <glyph glyph-name="ecaron" unicode="&#x11b;" horiz-adv-x="505" 
d="M105 242q0 -57 2 -79q5 -32 25 -62t52.5 -49.5t74.5 -19.5h5q46 0 81.5 23.5t53.5 64.5h52q-22 -64 -72 -98t-115 -34h-5q-58 0 -105.5 29t-75.5 84t-28 129v19q0 73 27 128t73.5 84.5t102.5 29.5h5q54 0 99 -27t71.5 -77t26.5 -115q0 -12 -2 -30h-348zM181.5 428
q-31.5 -19 -50.5 -48t-24 -60l-2 -37h297v34q-8 52 -47 91t-97 39h-5q-40 0 -71.5 -19zM385 710l-94 -137h-64l-94 137h51l76 -104l75 104h50z" />
    <glyph glyph-name="ecircumflex" unicode="&#xea;" horiz-adv-x="505" 
d="M105 242q0 -57 2 -79q5 -32 25 -62t52.5 -49.5t74.5 -19.5h5q46 0 81.5 23.5t53.5 64.5h52q-22 -64 -72 -98t-115 -34h-5q-58 0 -105.5 29t-75.5 84t-28 129v19q0 73 27 128t73.5 84.5t102.5 29.5h5q54 0 99 -27t71.5 -77t26.5 -115q0 -12 -2 -30h-348zM181.5 428
q-31.5 -19 -50.5 -48t-24 -60l-2 -37h297v34q-8 52 -47 91t-97 39h-5q-40 0 -71.5 -19zM335 573l-75 104l-76 -104h-51l94 137h64l94 -137h-50z" />
    <glyph glyph-name="edieresis" unicode="&#xeb;" horiz-adv-x="505" 
d="M105 242q0 -57 2 -79q5 -32 25 -62t52.5 -49.5t74.5 -19.5h5q46 0 81.5 23.5t53.5 64.5h52q-22 -64 -72 -98t-115 -34h-5q-58 0 -105.5 29t-75.5 84t-28 129v19q0 73 27 128t73.5 84.5t102.5 29.5h5q54 0 99 -27t71.5 -77t26.5 -115q0 -12 -2 -30h-348zM181.5 428
q-31.5 -19 -50.5 -48t-24 -60l-2 -37h297v34q-8 52 -47 91t-97 39h-5q-40 0 -71.5 -19zM138 683h74v-82h-74v82zM309 683h73v-82h-73v82z" />
    <glyph glyph-name="edotaccent" unicode="&#x117;" horiz-adv-x="505" 
d="M105 242q0 -57 2 -79q5 -32 25 -62t52.5 -49.5t74.5 -19.5h5q46 0 81.5 23.5t53.5 64.5h52q-22 -64 -72 -98t-115 -34h-5q-58 0 -105.5 29t-75.5 84t-28 129v19q0 73 27 128t73.5 84.5t102.5 29.5h5q54 0 99 -27t71.5 -77t26.5 -115q0 -12 -2 -30h-348zM181.5 428
q-31.5 -19 -50.5 -48t-24 -60l-2 -37h297v34q-8 52 -47 91t-97 39h-5q-40 0 -71.5 -19zM219 683h81v-82h-81v82z" />
    <glyph glyph-name="egrave" unicode="&#xe8;" horiz-adv-x="505" 
d="M105 242q0 -57 2 -79q5 -32 25 -62t52.5 -49.5t74.5 -19.5h5q46 0 81.5 23.5t53.5 64.5h52q-22 -64 -72 -98t-115 -34h-5q-58 0 -105.5 29t-75.5 84t-28 129v19q0 73 27 128t73.5 84.5t102.5 29.5h5q54 0 99 -27t71.5 -77t26.5 -115q0 -12 -2 -30h-348zM181.5 428
q-31.5 -19 -50.5 -48t-24 -60l-2 -37h297v34q-8 52 -47 91t-97 39h-5q-40 0 -71.5 -19zM139 710h59l83 -137h-51z" />
    <glyph glyph-name="emacron" unicode="&#x113;" horiz-adv-x="505" 
d="M105 242q0 -57 2 -79q5 -32 25 -62t52.5 -49.5t74.5 -19.5h5q46 0 81.5 23.5t53.5 64.5h52q-22 -64 -72 -98t-115 -34h-5q-58 0 -105.5 29t-75.5 84t-28 129v19q0 73 27 128t73.5 84.5t102.5 29.5h5q54 0 99 -27t71.5 -77t26.5 -115q0 -12 -2 -30h-348zM181.5 428
q-31.5 -19 -50.5 -48t-24 -60l-2 -37h297v34q-8 52 -47 91t-97 39h-5q-40 0 -71.5 -19zM148 657h224v-46h-224v46z" />
    <glyph glyph-name="eogonek" unicode="&#x119;" horiz-adv-x="505" 
d="M105 242q0 -57 2 -79q5 -32 25 -62t52.5 -49.5t74.5 -19.5h5q46 0 81.5 23.5t53.5 64.5h52q-22 -64 -73 -99l-41 -40q-48 -46 -48 -83v-3q0 -19 13 -31t32 -12h4q16 0 33 5v-35q-18 -6 -37 -6h-4q-41 0 -63.5 19.5t-22.5 54.5v3q0 46 53 97q-20 -2 -33 -2h-5
q-58 0 -105.5 29t-75.5 84t-28 129v19q0 73 27 128t73.5 84.5t102.5 29.5h5q54 0 99 -27t71.5 -77t26.5 -115q0 -12 -2 -30h-348zM181.5 428q-31.5 -19 -50.5 -48t-24 -60l-2 -37h297v34q-8 52 -47 91t-97 39h-5q-40 0 -71.5 -19z" />
    <glyph glyph-name="f" unicode="f" horiz-adv-x="303" 
d="M173 624v-145h80v-42h-80v-437h-52v437h-69v42h69v126q0 52 28 80t74 28q22 0 35 -5v-41q-12 2 -26 2q-51 0 -59 -45z" />
    <glyph glyph-name="g" unicode="g" horiz-adv-x="534" 
d="M443 479v-510q0 -50 -24 -91t-66 -64.5t-93 -23.5h-5q-65 0 -114 31.5t-67 90.5h54q14 -36 47.5 -57t79.5 -21h5q55 0 89 32.5t43 72.5v125q-25 -30 -60 -47t-75 -17h-6q-55 0 -100.5 28t-72 81t-26.5 124v22q0 71 26.5 124t72 81.5t100.5 28.5h6q41 0 76.5 -18t60.5 -49
v57h49zM340.5 68q33.5 23 51.5 58v236q-19 35 -52 58.5t-78 23.5h-6q-58 0 -95.5 -36t-49.5 -83q-4 -28 -4 -80q0 -48 4 -82q12 -47 49.5 -82.5t95.5 -35.5h6q45 0 78.5 23z" />
    <glyph glyph-name="gbreve" unicode="&#x11f;" horiz-adv-x="534" 
d="M443 479v-510q0 -50 -24 -91t-66 -64.5t-93 -23.5h-5q-65 0 -114 31.5t-67 90.5h54q14 -36 47.5 -57t79.5 -21h5q55 0 89 32.5t43 72.5v125q-25 -30 -60 -47t-75 -17h-6q-55 0 -100.5 28t-72 81t-26.5 124v22q0 71 26.5 124t72 81.5t100.5 28.5h6q41 0 76.5 -18t60.5 -49
v57h49zM340.5 68q33.5 23 51.5 58v236q-19 35 -52 58.5t-78 23.5h-6q-58 0 -95.5 -36t-49.5 -83q-4 -28 -4 -80q0 -48 4 -82q12 -47 49.5 -82.5t95.5 -35.5h6q45 0 78.5 23zM188 603q-32 30 -34 74h39q2 -25 22 -44t55 -19q34 0 54 19t22 44h39q-2 -44 -33.5 -74t-81.5 -30
t-82 30z" />
    <glyph glyph-name="uni0123" unicode="&#x123;" horiz-adv-x="534" 
d="M443 479v-510q0 -50 -24 -91t-66 -64.5t-93 -23.5h-5q-65 0 -114 31.5t-67 90.5h54q14 -36 47.5 -57t79.5 -21h5q55 0 89 32.5t43 72.5v125q-25 -30 -60 -47t-75 -17h-6q-55 0 -100.5 28t-72 81t-26.5 124v22q0 71 26.5 124t72 81.5t100.5 28.5h6q41 0 76.5 -18t60.5 -49
v57h49zM340.5 68q33.5 23 51.5 58v236q-19 35 -52 58.5t-78 23.5h-6q-58 0 -95.5 -36t-49.5 -83q-4 -28 -4 -80q0 -48 4 -82q12 -47 49.5 -82.5t95.5 -35.5h6q45 0 78.5 23zM244 699l50 47h1v-139h-51v92z" />
    <glyph glyph-name="gdotaccent" unicode="&#x121;" horiz-adv-x="534" 
d="M443 479v-510q0 -50 -24 -91t-66 -64.5t-93 -23.5h-5q-65 0 -114 31.5t-67 90.5h54q14 -36 47.5 -57t79.5 -21h5q55 0 89 32.5t43 72.5v125q-25 -30 -60 -47t-75 -17h-6q-55 0 -100.5 28t-72 81t-26.5 124v22q0 71 26.5 124t72 81.5t100.5 28.5h6q41 0 76.5 -18t60.5 -49
v57h49zM340.5 68q33.5 23 51.5 58v236q-19 35 -52 58.5t-78 23.5h-6q-58 0 -95.5 -36t-49.5 -83q-4 -28 -4 -80q0 -48 4 -82q12 -47 49.5 -82.5t95.5 -35.5h6q45 0 78.5 23zM229 683h81v-82h-81v82z" />
    <glyph glyph-name="h" unicode="h" horiz-adv-x="537" 
d="M373.5 469q36.5 -20 56 -54.5t19.5 -77.5v-337h-52v365q-11 33 -39 56t-73 23h-2q-38 0 -76 -21.5t-59 -59.5v-363h-52v710h52v-290q25 33 62.5 51t77.5 18h2q47 0 83.5 -20z" />
    <glyph glyph-name="hbar" unicode="&#x127;" horiz-adv-x="537" 
d="M373.5 469q36.5 -20 56 -54.5t19.5 -77.5v-337h-52v365q-11 33 -39 56t-73 23h-2q-38 0 -76 -21.5t-59 -59.5v-363h-52v587h-47v32h47v91h52v-91h135v-32h-135v-167q25 33 62.5 51t77.5 18h2q47 0 83.5 -20z" />
    <glyph glyph-name="i" unicode="i" horiz-adv-x="243" 
d="M96 479h52v-479h-52v479zM81 683h81v-82h-81v82z" />
    <glyph glyph-name="dotlessi" unicode="&#x131;" horiz-adv-x="243" 
d="M96 479h52v-479h-52v479z" />
    <glyph glyph-name="iacute" unicode="&#xed;" horiz-adv-x="243" 
d="M96 479h52v-479h-52v479zM183 710h59l-91 -137h-51z" />
    <glyph glyph-name="icircumflex" unicode="&#xee;" horiz-adv-x="243" 
d="M96 479h52v-479h-52v479zM197 573l-75 104l-76 -104h-51l94 137h64l94 -137h-50z" />
    <glyph glyph-name="idieresis" unicode="&#xef;" horiz-adv-x="243" 
d="M96 479h52v-479h-52v479zM0 683h74v-82h-74v82zM171 683h73v-82h-73v82z" />
    <glyph glyph-name="i.loclTRK" horiz-adv-x="243" 
d="M96 479h52v-479h-52v479zM81 683h81v-82h-81v82z" />
    <glyph glyph-name="igrave" unicode="&#xec;" horiz-adv-x="243" 
d="M96 479h52v-479h-52v479zM1 710h59l83 -137h-51z" />
    <glyph glyph-name="imacron" unicode="&#x12b;" horiz-adv-x="243" 
d="M96 479h52v-479h-52v479zM10 657h224v-46h-224v46z" />
    <glyph glyph-name="iogonek" unicode="&#x12f;" horiz-adv-x="243" 
d="M162 683v-82h-81v82h81zM96 479h52v-479h-1l-33 -24q-22 -17 -35.5 -37t-13.5 -41v-3q0 -19 13 -31t32 -12h4q16 0 33 5v-35q-18 -6 -37 -6h-4q-41 0 -63.5 19.5t-22.5 54.5v3q0 53 72 103l5 4h-1v479z" />
    <glyph glyph-name="j" unicode="j" horiz-adv-x="243" 
d="M96 479h52v-645l-52 -46v691zM81 683h81v-82h-81v82z" />
    <glyph glyph-name="uni0237" unicode="&#x237;" horiz-adv-x="243" 
d="M96 479h52v-645l-52 -46v691z" />
    <glyph glyph-name="k" unicode="k" horiz-adv-x="458" 
d="M383 0l-235 262v-262h-52v710h52v-446l203 214h63l-204 -213l239 -265h-66z" />
    <glyph glyph-name="uni0137" unicode="&#x137;" horiz-adv-x="458" 
d="M383 0l-235 262v-262h-52v710h52v-446l203 214h63l-204 -213l239 -265h-66zM207 -69h51v-79l-50 -47h-1v126z" />
    <glyph glyph-name="l" unicode="l" horiz-adv-x="243" 
d="M96 710h52v-710h-52v710z" />
    <glyph glyph-name="lacute" unicode="&#x13a;" horiz-adv-x="243" 
d="M96 710h52v-710h-52v710zM169 883h62l-83 -111h-53z" />
    <glyph glyph-name="lcaron" unicode="&#x13e;" horiz-adv-x="308" 
d="M96 710h52v-710h-52v710zM273 710h46l-39 -161h-43z" />
    <glyph glyph-name="uni013C" unicode="&#x13c;" horiz-adv-x="243" 
d="M96 710h52v-710h-52v710zM96 -69h51v-79l-50 -47h-1v126z" />
    <glyph glyph-name="lslash" unicode="&#x142;" horiz-adv-x="323" 
d="M274 419l-86 -52v-367h-52v336l-86 -52v46l86 52v328h52v-297l86 52v-46z" />
    <glyph glyph-name="m" unicode="m" horiz-adv-x="783" 
d="M655 446.5q40 -42.5 40 -109.5v-337h-52v367q-10 32 -36 54.5t-64 22.5h-2q-34 0 -67 -21t-53 -57v-366h-52v367q-10 32 -35.5 54.5t-64.5 22.5h-2q-34 0 -66.5 -20t-52.5 -57v-367h-52v479h49v-59q24 33 57 51t70 18h2q47 0 80.5 -21t50.5 -58q26 35 64 57t76 22h2
q68 0 108 -42.5z" />
    <glyph glyph-name="n" unicode="n" horiz-adv-x="535" 
d="M371.5 469q36.5 -20 56 -54.5t19.5 -77.5v-337h-52v365q-11 33 -39 56t-73 23h-2q-37 0 -74 -20.5t-59 -57.5v-366h-52v479h49v-60q25 33 63 51.5t78 18.5h2q47 0 83.5 -20z" />
    <glyph glyph-name="nacute" unicode="&#x144;" horiz-adv-x="535" 
d="M371.5 469q36.5 -20 56 -54.5t19.5 -77.5v-337h-52v365q-11 33 -39 56t-73 23h-2q-37 0 -74 -20.5t-59 -57.5v-366h-52v479h49v-60q25 33 63 51.5t78 18.5h2q47 0 83.5 -20zM335 710h59l-91 -137h-51z" />
    <glyph glyph-name="ncaron" unicode="&#x148;" horiz-adv-x="535" 
d="M371.5 469q36.5 -20 56 -54.5t19.5 -77.5v-337h-52v365q-11 33 -39 56t-73 23h-2q-37 0 -74 -20.5t-59 -57.5v-366h-52v479h49v-60q25 33 63 51.5t78 18.5h2q47 0 83.5 -20zM400 710l-94 -137h-64l-94 137h51l76 -104l75 104h50z" />
    <glyph glyph-name="uni0146" unicode="&#x146;" horiz-adv-x="535" 
d="M371.5 469q36.5 -20 56 -54.5t19.5 -77.5v-337h-52v365q-11 33 -39 56t-73 23h-2q-37 0 -74 -20.5t-59 -57.5v-366h-52v479h49v-60q25 33 63 51.5t78 18.5h2q47 0 83.5 -20zM247 -69h51v-79l-50 -47h-1v126z" />
    <glyph glyph-name="eng" unicode="&#x14b;" horiz-adv-x="535" 
d="M371.5 469q36.5 -20 56 -54.5t19.5 -77.5v-501l-52 -48v577q-11 33 -39 56t-73 23h-2q-37 0 -74 -20.5t-59 -57.5v-366h-52v479h49v-60q25 33 63 51.5t78 18.5h2q47 0 83.5 -20z" />
    <glyph glyph-name="ntilde" unicode="&#xf1;" horiz-adv-x="535" 
d="M371.5 469q36.5 -20 56 -54.5t19.5 -77.5v-337h-52v365q-11 33 -39 56t-73 23h-2q-37 0 -74 -20.5t-59 -57.5v-366h-52v479h49v-60q25 33 63 51.5t78 18.5h2q47 0 83.5 -20zM156.5 662q17.5 26 51.5 26q31 0 65 -21l21 -12q17 -10 27 -14.5t19 -4.5q28 0 33 52h36
q-2 -43 -18.5 -69t-49.5 -26q-27 0 -66 23l-22 13q-27 16 -44 16q-15 0 -24 -14t-11 -38h-36q1 43 18.5 69z" />
    <glyph glyph-name="o" unicode="o" horiz-adv-x="523" 
d="M153 17q-47 29 -75 84t-28 129v19q0 74 28 129t75 84t105 29h6q58 0 105.5 -29t75 -84t27.5 -129v-19q0 -74 -27.5 -129t-75 -84t-105.5 -29h-6q-58 0 -105 29zM264 33q60 0 98.5 35.5t51.5 82.5q3 26 3 89q0 64 -3 88q-13 47 -51.5 82.5t-98.5 35.5h-6
q-60 0 -98.5 -35.5t-50.5 -82.5q-4 -32 -4 -88q0 -55 4 -89q12 -47 50.5 -82.5t98.5 -35.5h6z" />
    <glyph glyph-name="oacute" unicode="&#xf3;" horiz-adv-x="523" 
d="M153 17q-47 29 -75 84t-28 129v19q0 74 28 129t75 84t105 29h6q58 0 105.5 -29t75 -84t27.5 -129v-19q0 -74 -27.5 -129t-75 -84t-105.5 -29h-6q-58 0 -105 29zM264 33q60 0 98.5 35.5t51.5 82.5q3 26 3 89q0 64 -3 88q-13 47 -51.5 82.5t-98.5 35.5h-6
q-60 0 -98.5 -35.5t-50.5 -82.5q-4 -32 -4 -88q0 -55 4 -89q12 -47 50.5 -82.5t98.5 -35.5h6zM321 710h59l-91 -137h-51z" />
    <glyph glyph-name="ocircumflex" unicode="&#xf4;" horiz-adv-x="523" 
d="M153 17q-47 29 -75 84t-28 129v19q0 74 28 129t75 84t105 29h6q58 0 105.5 -29t75 -84t27.5 -129v-19q0 -74 -27.5 -129t-75 -84t-105.5 -29h-6q-58 0 -105 29zM264 33q60 0 98.5 35.5t51.5 82.5q3 26 3 89q0 64 -3 88q-13 47 -51.5 82.5t-98.5 35.5h-6
q-60 0 -98.5 -35.5t-50.5 -82.5q-4 -32 -4 -88q0 -55 4 -89q12 -47 50.5 -82.5t98.5 -35.5h6zM336 573l-75 104l-76 -104h-51l94 137h64l94 -137h-50z" />
    <glyph glyph-name="odieresis" unicode="&#xf6;" horiz-adv-x="523" 
d="M153 17q-47 29 -75 84t-28 129v19q0 74 28 129t75 84t105 29h6q58 0 105.5 -29t75 -84t27.5 -129v-19q0 -74 -27.5 -129t-75 -84t-105.5 -29h-6q-58 0 -105 29zM264 33q60 0 98.5 35.5t51.5 82.5q3 26 3 89q0 64 -3 88q-13 47 -51.5 82.5t-98.5 35.5h-6
q-60 0 -98.5 -35.5t-50.5 -82.5q-4 -32 -4 -88q0 -55 4 -89q12 -47 50.5 -82.5t98.5 -35.5h6zM138 683h74v-82h-74v82zM309 683h73v-82h-73v82z" />
    <glyph glyph-name="ograve" unicode="&#xf2;" horiz-adv-x="523" 
d="M153 17q-47 29 -75 84t-28 129v19q0 74 28 129t75 84t105 29h6q58 0 105.5 -29t75 -84t27.5 -129v-19q0 -74 -27.5 -129t-75 -84t-105.5 -29h-6q-58 0 -105 29zM264 33q60 0 98.5 35.5t51.5 82.5q3 26 3 89q0 64 -3 88q-13 47 -51.5 82.5t-98.5 35.5h-6
q-60 0 -98.5 -35.5t-50.5 -82.5q-4 -32 -4 -88q0 -55 4 -89q12 -47 50.5 -82.5t98.5 -35.5h6zM140 710h59l83 -137h-51z" />
    <glyph glyph-name="ohungarumlaut" unicode="&#x151;" horiz-adv-x="523" 
d="M153 17q-47 29 -75 84t-28 129v19q0 74 28 129t75 84t105 29h6q58 0 105.5 -29t75 -84t27.5 -129v-19q0 -74 -27.5 -129t-75 -84t-105.5 -29h-6q-58 0 -105 29zM264 33q60 0 98.5 35.5t51.5 82.5q3 26 3 89q0 64 -3 88q-13 47 -51.5 82.5t-98.5 35.5h-6
q-60 0 -98.5 -35.5t-50.5 -82.5q-4 -32 -4 -88q0 -55 4 -89q12 -47 50.5 -82.5t98.5 -35.5h6zM236 710h54l-89 -137h-48zM386 710h54l-89 -137h-48z" />
    <glyph glyph-name="omacron" unicode="&#x14d;" horiz-adv-x="523" 
d="M153 17q-47 29 -75 84t-28 129v19q0 74 28 129t75 84t105 29h6q58 0 105.5 -29t75 -84t27.5 -129v-19q0 -74 -27.5 -129t-75 -84t-105.5 -29h-6q-58 0 -105 29zM264 33q60 0 98.5 35.5t51.5 82.5q3 26 3 89q0 64 -3 88q-13 47 -51.5 82.5t-98.5 35.5h-6
q-60 0 -98.5 -35.5t-50.5 -82.5q-4 -32 -4 -88q0 -55 4 -89q12 -47 50.5 -82.5t98.5 -35.5h6zM149 657h224v-46h-224v46z" />
    <glyph glyph-name="oslash" unicode="&#xf8;" horiz-adv-x="523" 
d="M472 249v-19q0 -74 -27.5 -129t-75 -84t-105.5 -29h-6q-74 0 -130 48l-27 -36h-42l45 60q-26 32 -40 75t-14 95v19q0 74 28 129t75 84t105 29h6q75 0 130 -47l26 35h42l-45 -59q55 -66 55 -171zM133 99l233 308q-42 39 -102 39h-6q-60 0 -98.5 -35.5t-50.5 -82.5
q-4 -32 -4 -88q0 -55 4 -89q8 -27 24 -52zM417 240q0 64 -3 88q-9 31 -26 53l-232 -308q40 -40 102 -40h6q60 0 98.5 35.5t51.5 82.5q3 26 3 89z" />
    <glyph glyph-name="otilde" unicode="&#xf5;" horiz-adv-x="523" 
d="M153 17q-47 29 -75 84t-28 129v19q0 74 28 129t75 84t105 29h6q58 0 105.5 -29t75 -84t27.5 -129v-19q0 -74 -27.5 -129t-75 -84t-105.5 -29h-6q-58 0 -105 29zM264 33q60 0 98.5 35.5t51.5 82.5q3 26 3 89q0 64 -3 88q-13 47 -51.5 82.5t-98.5 35.5h-6
q-60 0 -98.5 -35.5t-50.5 -82.5q-4 -32 -4 -88q0 -55 4 -89q12 -47 50.5 -82.5t98.5 -35.5h6zM142.5 662q17.5 26 51.5 26q31 0 65 -21l21 -12q17 -10 27 -14.5t19 -4.5q28 0 33 52h36q-2 -43 -18.5 -69t-49.5 -26q-27 0 -66 23l-22 13q-27 16 -44 16q-15 0 -24 -14t-11 -38
h-36q1 43 18.5 69z" />
    <glyph glyph-name="oe" unicode="&#x153;" horiz-adv-x="858" 
d="M466 243q0 -36 2 -80q5 -32 24.5 -62t51 -49.5t72.5 -19.5h5q46 0 80 23.5t51 64.5h52q-21 -64 -70.5 -98t-112.5 -34h-5q-57 0 -104.5 30t-74.5 84q-26 -54 -73 -84t-104 -30h-6q-56 0 -102.5 29t-74 84t-27.5 129v19q0 74 27.5 129t74 84t102.5 29h6q57 0 104 -29.5
t73 -83.5q25 54 71 83.5t101 29.5h5q53 0 97.5 -27.5t70.5 -77t26 -114.5q0 -11 -2 -29h-340zM540.5 428q-30.5 -19 -49 -48t-23.5 -59q-1 -10 -1 -38h287v34q-7 51 -45.5 90.5t-93.5 39.5h-5q-39 0 -69.5 -19zM409 240q0 66 -3 88q-12 46 -50 82t-96 36h-6q-57 0 -95 -35.5
t-50 -82.5q-4 -32 -4 -88q0 -55 4 -89q12 -47 49.5 -82.5t95.5 -35.5h6q58 0 96 36t50 82q3 24 3 89z" />
    <glyph glyph-name="p" unicode="p" horiz-adv-x="547" 
d="M395 460q46 -29 73 -83.5t27 -126.5v-22q0 -72 -27 -126t-73 -83t-102 -29h-7q-41 0 -77 17t-61 46v-253h-52v679h49v-58q25 31 62 49.5t79 18.5h7q56 0 102 -29zM440 240q0 63 -3 85q-13 47 -51.5 83t-98.5 36h-6q-46 0 -80 -23t-53 -58v-248q19 -35 53 -57.5t80 -22.5
h6q60 0 98.5 35.5t51.5 82.5q3 26 3 87z" />
    <glyph glyph-name="thorn" unicode="&#xfe;" horiz-adv-x="547" 
d="M395 460q46 -29 73 -83.5t27 -126.5v-22q0 -72 -27 -126t-73 -83t-102 -29h-7q-41 0 -77 17t-61 46v-253h-52v910h52v-286q25 30 61 47.5t77 17.5h7q56 0 102 -29zM440 240q0 63 -3 85q-13 47 -51.5 83t-98.5 36h-6q-46 0 -80 -23t-53 -58v-248q19 -35 53 -57.5t80 -22.5
h6q60 0 98.5 35.5t51.5 82.5q3 26 3 87z" />
    <glyph glyph-name="q" unicode="q" horiz-adv-x="548" 
d="M452 479v-679h-52v255q-25 -30 -61.5 -47.5t-77.5 -17.5h-6q-56 0 -102.5 29t-73.5 83t-27 126v22q0 72 27 126.5t73.5 83.5t102.5 29h6q42 0 79 -18.5t62 -49.5v58h50zM347 58q34 23 53 58v246q-19 35 -53 58.5t-81 23.5h-6q-60 0 -98.5 -36t-50.5 -83q-4 -30 -4 -85
q0 -53 4 -87q12 -47 50.5 -82.5t98.5 -35.5h6q47 0 81 23z" />
    <glyph glyph-name="r" unicode="r" horiz-adv-x="325" 
d="M288 479v-48q-9 1 -24 1q-34 0 -65.5 -20.5t-50.5 -53.5v-358h-52v479h49v-66q49 68 120 68q13 0 23 -2z" />
    <glyph glyph-name="racute" unicode="&#x155;" horiz-adv-x="325" 
d="M288 479v-48q-9 1 -24 1q-34 0 -65.5 -20.5t-50.5 -53.5v-358h-52v479h49v-66q49 68 120 68q13 0 23 -2zM253 710h59l-91 -137h-51z" />
    <glyph glyph-name="rcaron" unicode="&#x159;" horiz-adv-x="325" 
d="M288 479v-48q-9 1 -24 1q-34 0 -65.5 -20.5t-50.5 -53.5v-358h-52v479h49v-66q49 68 120 68q13 0 23 -2zM318 710l-94 -137h-64l-94 137h51l76 -104l75 104h50z" />
    <glyph glyph-name="uni0157" unicode="&#x157;" horiz-adv-x="325" 
d="M288 479v-48q-9 1 -24 1q-34 0 -65.5 -20.5t-50.5 -53.5v-358h-52v479h49v-66q49 68 120 68q13 0 23 -2zM95 -69h51v-79l-50 -47h-1v126z" />
    <glyph glyph-name="s" unicode="s" horiz-adv-x="389" 
d="M88 25.5q-45 37.5 -49 94.5h51q4 -38 34 -64t73 -26h2q52 0 77.5 31t22.5 82q-6 18 -24 34.5t-57 39.5l-71 41q-39 23 -62 48.5t-23 66.5v2q0 49 36 82.5t89 33.5h4q44 0 79 -23t55 -57l-38 -25q-40 62 -97 62h-2q-39 0 -61 -24.5t-19 -63.5q6 -16 22 -30.5t48 -32.5
l68 -38q47 -27 73 -56.5t26 -76.5v-2q0 -59 -41 -97.5t-105 -38.5h-2q-64 0 -109 37.5z" />
    <glyph glyph-name="sacute" unicode="&#x15b;" horiz-adv-x="389" 
d="M88 25.5q-45 37.5 -49 94.5h51q4 -38 34 -64t73 -26h2q52 0 77.5 31t22.5 82q-6 18 -24 34.5t-57 39.5l-71 41q-39 23 -62 48.5t-23 66.5v2q0 49 36 82.5t89 33.5h4q44 0 79 -23t55 -57l-38 -25q-40 62 -97 62h-2q-39 0 -61 -24.5t-19 -63.5q6 -16 22 -30.5t48 -32.5
l68 -38q47 -27 73 -56.5t26 -76.5v-2q0 -59 -41 -97.5t-105 -38.5h-2q-64 0 -109 37.5zM257 710h59l-91 -137h-51z" />
    <glyph glyph-name="scaron" unicode="&#x161;" horiz-adv-x="389" 
d="M88 25.5q-45 37.5 -49 94.5h51q4 -38 34 -64t73 -26h2q52 0 77.5 31t22.5 82q-6 18 -24 34.5t-57 39.5l-71 41q-39 23 -62 48.5t-23 66.5v2q0 49 36 82.5t89 33.5h4q44 0 79 -23t55 -57l-38 -25q-40 62 -97 62h-2q-39 0 -61 -24.5t-19 -63.5q6 -16 22 -30.5t48 -32.5
l68 -38q47 -27 73 -56.5t26 -76.5v-2q0 -59 -41 -97.5t-105 -38.5h-2q-64 0 -109 37.5zM321 710l-94 -137h-64l-94 137h51l76 -104l75 104h50z" />
    <glyph glyph-name="scedilla" unicode="&#x15f;" horiz-adv-x="389" 
d="M319 202.5q26 -29.5 26 -76.5v-2q0 -55 -36.5 -92.5t-93.5 -42.5l-23 -55q41 -3 66.5 -24.5t25.5 -58.5v-3q0 -40 -28.5 -62t-73.5 -22h-4q-48 0 -82 23v38q30 -26 81 -26h4q25 0 41.5 12.5t16.5 32.5v11q0 19 -18.5 31.5t-46.5 12.5h-35l38 90q-57 6 -95.5 42t-42.5 89
h51q4 -38 34 -64t73 -26h2q52 0 77.5 31t22.5 82q-6 18 -24 34.5t-57 39.5l-71 41q-39 23 -62 48.5t-23 66.5v2q0 49 36 82.5t89 33.5h4q44 0 79 -23t55 -57l-38 -25q-40 62 -97 62h-2q-39 0 -61 -24.5t-19 -63.5q6 -16 22 -30.5t48 -32.5l68 -38q47 -27 73 -56.5z" />
    <glyph glyph-name="uni0219" unicode="&#x219;" horiz-adv-x="389" 
d="M88 25.5q-45 37.5 -49 94.5h51q4 -38 34 -64t73 -26h2q52 0 77.5 31t22.5 82q-6 18 -24 34.5t-57 39.5l-71 41q-39 23 -62 48.5t-23 66.5v2q0 49 36 82.5t89 33.5h4q44 0 79 -23t55 -57l-38 -25q-40 62 -97 62h-2q-39 0 -61 -24.5t-19 -63.5q6 -16 22 -30.5t48 -32.5
l68 -38q47 -27 73 -56.5t26 -76.5v-2q0 -59 -41 -97.5t-105 -38.5h-2q-64 0 -109 37.5zM175 -69h51v-79l-50 -47h-1v126z" />
    <glyph glyph-name="germandbls" unicode="&#xdf;" horiz-adv-x="564" 
d="M465.5 322q38.5 -51 38.5 -117v-6q0 -59 -26 -105t-71.5 -72t-102.5 -26h-6q-23 0 -47.5 3.5t-39.5 9.5v44q32 -12 82 -12h5q62 0 102 34.5t48 79.5q2 22 2 47t-2 47q-5 28 -27 55t-58 44t-82 17h-30v42h21q50 0 84.5 25t42.5 64q2 20 2 43q0 21 -2 41q-8 38 -42.5 63.5
t-82.5 25.5h-5q-52 0 -88.5 -31t-36.5 -78v-560h-52v542q0 48 24 87.5t64.5 61.5t88.5 22h5q48 0 89.5 -22t66.5 -61t25 -87v-6q0 -49 -25 -87t-66 -57q63 -20 101.5 -71z" />
    <glyph glyph-name="t" unicode="t" horiz-adv-x="301" 
d="M253 437h-80v-437h-52v437h-69v42h69v120l52 46v-166h80v-42z" />
    <glyph glyph-name="tbar" unicode="&#x167;" horiz-adv-x="301" 
d="M270 224h-97v-224h-52v224h-85v32h85v181h-69v42h69v120l52 46v-166h80v-42h-80v-181h97v-32z" />
    <glyph glyph-name="tcaron" unicode="&#x165;" horiz-adv-x="361" 
d="M253 437h-80v-437h-52v437h-69v42h69v120l52 46v-166h80v-42zM303 735h46l-39 -161h-43z" />
    <glyph glyph-name="uni0163" unicode="&#x163;" horiz-adv-x="301" 
d="M167 0l-28 -66q41 -3 66.5 -24.5t25.5 -58.5v-3q0 -40 -28.5 -62t-73.5 -22h-4q-48 0 -82 23v38q30 -26 81 -26h4q25 0 41.5 12.5t16.5 32.5v11q0 19 -18.5 31.5t-46.5 12.5h-35l43 101h-8v437h-69v42h69v120l52 46v-166h80v-42h-80v-437h-6z" />
    <glyph glyph-name="uni021B" unicode="&#x21b;" horiz-adv-x="301" 
d="M253 437h-80v-437h-52v437h-69v42h69v120l52 46v-166h80v-42zM121 -69h51v-79l-50 -47h-1v126z" />
    <glyph glyph-name="u" unicode="u" horiz-adv-x="533" 
d="M437 479v-479h-49v59q-25 -33 -61.5 -51t-76.5 -18h-2q-47 0 -83.5 20t-56.5 54.5t-20 76.5v338h52v-365q11 -33 39.5 -56t74.5 -23h2q36 0 72 20.5t57 56.5v367h52z" />
    <glyph glyph-name="uacute" unicode="&#xfa;" horiz-adv-x="533" 
d="M437 479v-479h-49v59q-25 -33 -61.5 -51t-76.5 -18h-2q-47 0 -83.5 20t-56.5 54.5t-20 76.5v338h52v-365q11 -33 39.5 -56t74.5 -23h2q36 0 72 20.5t57 56.5v367h52zM325 710h59l-91 -137h-51z" />
    <glyph glyph-name="ucircumflex" unicode="&#xfb;" horiz-adv-x="533" 
d="M437 479v-479h-49v59q-25 -33 -61.5 -51t-76.5 -18h-2q-47 0 -83.5 20t-56.5 54.5t-20 76.5v338h52v-365q11 -33 39.5 -56t74.5 -23h2q36 0 72 20.5t57 56.5v367h52zM339 573l-75 104l-76 -104h-51l94 137h64l94 -137h-50z" />
    <glyph glyph-name="udieresis" unicode="&#xfc;" horiz-adv-x="533" 
d="M437 479v-479h-49v59q-25 -33 -61.5 -51t-76.5 -18h-2q-47 0 -83.5 20t-56.5 54.5t-20 76.5v338h52v-365q11 -33 39.5 -56t74.5 -23h2q36 0 72 20.5t57 56.5v367h52zM142 683h74v-82h-74v82zM313 683h73v-82h-73v82z" />
    <glyph glyph-name="ugrave" unicode="&#xf9;" horiz-adv-x="533" 
d="M437 479v-479h-49v59q-25 -33 -61.5 -51t-76.5 -18h-2q-47 0 -83.5 20t-56.5 54.5t-20 76.5v338h52v-365q11 -33 39.5 -56t74.5 -23h2q36 0 72 20.5t57 56.5v367h52zM143 710h59l83 -137h-51z" />
    <glyph glyph-name="uhungarumlaut" unicode="&#x171;" horiz-adv-x="533" 
d="M437 479v-479h-49v59q-25 -33 -61.5 -51t-76.5 -18h-2q-47 0 -83.5 20t-56.5 54.5t-20 76.5v338h52v-365q11 -33 39.5 -56t74.5 -23h2q36 0 72 20.5t57 56.5v367h52zM240 710h54l-89 -137h-48zM390 710h54l-89 -137h-48z" />
    <glyph glyph-name="umacron" unicode="&#x16b;" horiz-adv-x="533" 
d="M437 479v-479h-49v59q-25 -33 -61.5 -51t-76.5 -18h-2q-47 0 -83.5 20t-56.5 54.5t-20 76.5v338h52v-365q11 -33 39.5 -56t74.5 -23h2q36 0 72 20.5t57 56.5v367h52zM152 657h224v-46h-224v46z" />
    <glyph glyph-name="uogonek" unicode="&#x173;" horiz-adv-x="533" 
d="M368.5 -61q-13.5 -20 -13.5 -41v-3q0 -19 13 -31t32 -12h4q16 0 33 5v-35q-18 -6 -37 -6h-4q-41 0 -63.5 19.5t-22.5 54.5v3q0 53 72 103l6 4v59q-25 -33 -61.5 -51t-76.5 -18h-2q-47 0 -83.5 20t-56.5 54.5t-20 76.5v338h52v-365q11 -33 39.5 -56t74.5 -23h2
q36 0 72 20.5t57 56.5v367h52v-479l-33 -24q-22 -17 -35.5 -37z" />
    <glyph glyph-name="uring" unicode="&#x16f;" horiz-adv-x="533" 
d="M437 479v-479h-49v59q-25 -33 -61.5 -51t-76.5 -18h-2q-47 0 -83.5 20t-56.5 54.5t-20 76.5v338h52v-365q11 -33 39.5 -56t74.5 -23h2q36 0 72 20.5t57 56.5v367h52zM203 582.5q-26 25.5 -26 59.5q0 35 26 60t61 25t60.5 -25t25.5 -60t-25.5 -60t-60.5 -25t-61 25.5z
M299.5 607.5q14.5 14.5 14.5 34.5q0 21 -14.5 35.5t-35.5 14.5t-36 -14.5t-15 -35.5q0 -20 15 -34.5t36 -14.5t35.5 14.5z" />
    <glyph glyph-name="v" unicode="v" horiz-adv-x="483" 
d="M461 479l-218 -504h-2l-219 504h55l166 -390l166 390h52z" />
    <glyph glyph-name="w" unicode="w" horiz-adv-x="714" 
d="M685 479l-179 -504h-2l-149 380l-145 -380h-2l-180 504h55l130 -381l144 381h1l146 -381l129 381h52z" />
    <glyph glyph-name="wacute" unicode="&#x1e83;" horiz-adv-x="714" 
d="M685 479l-179 -504h-2l-149 380l-145 -380h-2l-180 504h55l130 -381l144 381h1l146 -381l129 381h52zM420 710h59l-91 -137h-51z" />
    <glyph glyph-name="wcircumflex" unicode="&#x175;" horiz-adv-x="714" 
d="M685 479l-179 -504h-2l-149 380l-145 -380h-2l-180 504h55l130 -381l144 381h1l146 -381l129 381h52zM434 573l-75 104l-76 -104h-51l94 137h64l94 -137h-50z" />
    <glyph glyph-name="wdieresis" unicode="&#x1e85;" horiz-adv-x="714" 
d="M685 479l-179 -504h-2l-149 380l-145 -380h-2l-180 504h55l130 -381l144 381h1l146 -381l129 381h52zM237 683h74v-82h-74v82zM408 683h73v-82h-73v82z" />
    <glyph glyph-name="wgrave" unicode="&#x1e81;" horiz-adv-x="714" 
d="M685 479l-179 -504h-2l-149 380l-145 -380h-2l-180 504h55l130 -381l144 381h1l146 -381l129 381h52zM239 710h59l83 -137h-51z" />
    <glyph glyph-name="x" unicode="x" horiz-adv-x="478" 
d="M397 0l-159 216l-159 -216h-59l185 246l-175 233h61l150 -203l148 203h58l-171 -233l181 -246h-60z" />
    <glyph glyph-name="y" unicode="y" horiz-adv-x="485" 
d="M463 479l-299 -679h-52l105 238l-195 441h55l166 -381l168 381h52z" />
    <glyph glyph-name="yacute" unicode="&#xfd;" horiz-adv-x="485" 
d="M463 479l-299 -679h-52l105 238l-195 441h55l166 -381l168 381h52zM303 710h59l-91 -137h-51z" />
    <glyph glyph-name="ycircumflex" unicode="&#x177;" horiz-adv-x="485" 
d="M463 479l-299 -679h-52l105 238l-195 441h55l166 -381l168 381h52zM318 573l-75 104l-76 -104h-51l94 137h64l94 -137h-50z" />
    <glyph glyph-name="ydieresis" unicode="&#xff;" horiz-adv-x="485" 
d="M463 479l-299 -679h-52l105 238l-195 441h55l166 -381l168 381h52zM120 683h74v-82h-74v82zM291 683h73v-82h-73v82z" />
    <glyph glyph-name="ygrave" unicode="&#x1ef3;" horiz-adv-x="485" 
d="M463 479l-299 -679h-52l105 238l-195 441h55l166 -381l168 381h52zM122 710h59l83 -137h-51z" />
    <glyph glyph-name="z" unicode="z" horiz-adv-x="452" 
d="M417 476l-296 -431h286v-45h-372v2l296 432h-271v44h357v-2z" />
    <glyph glyph-name="zacute" unicode="&#x17a;" horiz-adv-x="452" 
d="M417 476l-296 -431h286v-45h-372v2l296 432h-271v44h357v-2zM295 710h59l-91 -137h-51z" />
    <glyph glyph-name="zcaron" unicode="&#x17e;" horiz-adv-x="452" 
d="M417 476l-296 -431h286v-45h-372v2l296 432h-271v44h357v-2zM359 710l-94 -137h-64l-94 137h51l76 -104l75 104h50z" />
    <glyph glyph-name="zdotaccent" unicode="&#x17c;" horiz-adv-x="452" 
d="M417 476l-296 -431h286v-45h-372v2l296 432h-271v44h357v-2zM193 683h81v-82h-81v82z" />
    <glyph glyph-name="ordfeminine" unicode="&#xaa;" horiz-adv-x="361" 
d="M300 680v-313h-41v35q-16 -19 -39.5 -30.5t-50.5 -11.5h-4q-57 0 -95 43t-38 114v13q0 48 18 83t48.5 54t66.5 19h4q27 0 50.5 -11.5t39.5 -30.5v36h41zM223.5 411q20.5 13 32.5 34v157q-13 20 -33 33t-47 13h-4q-36 0 -59 -20.5t-32 -48.5q-2 -24 -2 -56q0 -35 2 -55
q9 -28 32 -49t59 -21h4q27 0 47.5 13z" />
    <glyph glyph-name="ordmasculine" unicode="&#xba;" horiz-adv-x="348" 
d="M102 378q-32 19 -51 55.5t-19 84.5v11q0 48 19 84.5t51 55.5t70 19h4q59 0 99 -43t40 -116v-11q0 -73 -40 -116t-99 -43h-4q-38 0 -70 19zM176 396q35 0 58.5 21.5t32.5 49.5q2 20 2 56q0 39 -2 57q-9 28 -32.5 49t-58.5 21h-4q-36 0 -59 -21t-32 -49q-2 -20 -2 -57
q0 -38 2 -56q9 -28 32 -49.5t59 -21.5h4z" />
    <glyph glyph-name="uni0394" unicode="&#x394;" horiz-adv-x="594" 
d="M577 0h-560l279 705h2zM505 47l-210 534l-208 -534h418z" />
    <glyph glyph-name="uni03A9" unicode="&#x3a9;" horiz-adv-x="686" 
d="M623 48v-48h-237v52q76 14 121.5 68.5t54.5 124.5q2 28 2 105t-2 104q-8 49 -34.5 92.5t-73 71t-108.5 27.5h-6q-62 0 -108.5 -27.5t-73 -71t-34.5 -92.5q-2 -54 -2 -104q0 -49 2 -105q9 -69 54.5 -124t121.5 -69v-52h-237v48h138q-66 35 -101.5 105t-35.5 168v56
q0 97 36 168.5t98.5 109t141.5 37.5h6q79 0 141.5 -37.5t98.5 -109t36 -168.5v-56q0 -98 -35.5 -168t-101.5 -105h138z" />
    <glyph glyph-name="uni03BC" unicode="&#x3bc;" horiz-adv-x="541" 
d="M445 479v-479h-49v59q-25 -33 -61 -51t-75 -18h-2q-68 0 -110 45v-235h-52v679h52v-365q10 -32 39.5 -55.5t73.5 -23.5h2q37 0 73 20.5t57 56.5v367h52z" />
    <glyph glyph-name="pi" unicode="&#x3c0;" horiz-adv-x="571" 
d="M519 437h-81v-437h-52v437h-214v-437h-52v437h-68v42h467v-42z" />
    <glyph glyph-name="zero" unicode="0" horiz-adv-x="611" 
d="M185.5 21q-53.5 33 -85.5 97.5t-32 154.5v134q0 90 32 154.5t85.5 97.5t116.5 33h6q63 0 116.5 -33t85.5 -97.5t32 -154.5v-134q0 -90 -32 -154.5t-85.5 -97.5t-116.5 -33h-6q-63 0 -116.5 33zM308 33q50 0 87.5 25t59.5 62t29 74q3 45 3 146q0 103 -3 146q-7 37 -29 74
t-59.5 62t-87.5 25h-6q-50 0 -87 -25t-59 -62t-29 -74q-3 -43 -3 -146q0 -101 3 -146q7 -37 29 -74t59 -62t87 -25h6z" />
    <glyph glyph-name="zero.tf" horiz-adv-x="600" 
d="M180.5 21q-53.5 33 -85.5 97.5t-32 154.5v134q0 90 32 154.5t85.5 97.5t116.5 33h6q63 0 116.5 -33t85.5 -97.5t32 -154.5v-134q0 -90 -32 -154.5t-85.5 -97.5t-116.5 -33h-6q-63 0 -116.5 33zM303 33q50 0 87 25t59 62t29 74q3 45 3 146q0 103 -3 146q-7 37 -29 74
t-59 62t-87 25h-6q-50 0 -87 -25t-59 -62t-29 -74q-3 -43 -3 -146q0 -101 3 -146q7 -37 29 -74t59 -62t87 -25h6z" />
    <glyph glyph-name="one" unicode="1" horiz-adv-x="398" 
d="M232 0h-52v633h-83l23 47h112v-680z" />
    <glyph glyph-name="one.tf" horiz-adv-x="600" 
d="M340 0h-52v633h-83l23 47h112v-680z" />
    <glyph glyph-name="two" unicode="2" horiz-adv-x="544" 
d="M492 47v-47h-444v2l270 325q46 55 62.5 83t24.5 52q2 14 2 41q0 34 -2 44q-11 42 -48 71t-92 29h-5q-61 0 -96 -34.5t-46 -89.5h-55q11 74 64.5 121.5t132.5 47.5h5q54 0 98.5 -24t71 -67t26.5 -96v-2q0 -45 -22.5 -90t-81.5 -116l-210 -250h345z" />
    <glyph glyph-name="two.tf" horiz-adv-x="600" 
d="M522 47v-47h-444v2l270 325q46 55 62.5 83t24.5 52q2 14 2 41q0 34 -2 44q-11 42 -48 71t-92 29h-5q-61 0 -96 -34.5t-46 -89.5h-55q11 74 64.5 121.5t132.5 47.5h5q54 0 98.5 -24t71 -67t26.5 -96v-2q0 -45 -22.5 -90t-81.5 -116l-210 -250h345z" />
    <glyph glyph-name="three" unicode="3" horiz-adv-x="564" 
d="M393.5 386.5q47.5 -27.5 75.5 -75t28 -106.5v-7q0 -60 -29 -108t-78 -75t-109 -27h-5q-56 0 -102.5 22.5t-76.5 62.5t-36 90h56q6 -54 49.5 -92t109.5 -38h5q63 0 102.5 32.5t55.5 82.5q3 20 3 53q0 36 -3 54q-16 50 -55 82.5t-103 32.5h-80l188 263h-296v47h384v-2
l-188 -263q57 -1 104.5 -28.5z" />
    <glyph glyph-name="three.tf" horiz-adv-x="600" 
d="M416.5 386.5q47.5 -27.5 75.5 -75t28 -106.5v-7q0 -60 -29 -108t-78 -75t-109 -27h-5q-56 0 -102.5 22.5t-76.5 62.5t-36 90h56q6 -54 49.5 -92t109.5 -38h5q63 0 102.5 32.5t55.5 82.5q3 20 3 53q0 36 -3 54q-16 50 -55 82.5t-103 32.5h-80l188 263h-296v47h384v-2
l-188 -263q57 -1 104.5 -28.5z" />
    <glyph glyph-name="four" unicode="4" horiz-adv-x="575" 
d="M474 403v-403h-52v181h-370v2l232 497h55l-211 -452h294v175h52z" />
    <glyph glyph-name="four.tf" horiz-adv-x="600" 
d="M490 403v-403h-52v181h-370v2l232 497h55l-211 -452h294v175h52z" />
    <glyph glyph-name="five" unicode="5" horiz-adv-x="561" 
d="M181.5 10.5q-46.5 22.5 -76.5 62.5t-36 90h55q6 -54 49.5 -92t109.5 -38h5q63 0 102.5 32.5t55.5 82.5q3 20 3 53q0 36 -3 54q-16 50 -55 82.5t-103 32.5h-179v310h354v-47h-305v-218h132q59 0 108 -27t77.5 -75t28.5 -108v-7q0 -60 -29 -108t-78 -75t-109 -27h-5
q-55 0 -101.5 22.5z" />
    <glyph glyph-name="five.tf" horiz-adv-x="600" 
d="M200.5 10.5q-46.5 22.5 -76.5 62.5t-36 90h55q6 -54 49.5 -92t109.5 -38h5q63 0 102.5 32.5t55.5 82.5q3 20 3 53q0 36 -3 54q-16 50 -55 82.5t-103 32.5h-179v310h354v-47h-305v-218h132q59 0 108 -27t77.5 -75t28.5 -108v-7q0 -60 -29 -108t-78 -75t-109 -27h-5
q-55 0 -101.5 22.5z" />
    <glyph glyph-name="six" unicode="6" horiz-adv-x="565" 
d="M397.5 399q48.5 -28 76.5 -77t28 -111v-7q0 -62 -28.5 -111.5t-77 -77t-106.5 -27.5h-5q-59 0 -107.5 27.5t-77 77t-28.5 111.5v7q0 32 9 64t30 70l191 335h57l-158 -274q37 21 85 21h5q58 0 106.5 -28zM447 207q0 38 -2 56q-11 47 -51.5 83t-103.5 36h-5q-63 0 -104 -36
t-52 -83q-2 -18 -2 -56q0 -36 2 -56q11 -47 52 -82.5t104 -35.5h5q62 0 103 35.5t52 82.5q2 20 2 56z" />
    <glyph glyph-name="six.tf" horiz-adv-x="600" 
d="M413.5 399q48.5 -28 76.5 -77t28 -111v-7q0 -62 -28.5 -111.5t-77 -77t-106.5 -27.5h-5q-59 0 -107.5 27.5t-77 77t-28.5 111.5v7q0 32 9 64t30 70l191 335h57l-158 -274q37 21 85 21h5q58 0 106.5 -28zM463 207q0 38 -2 56q-11 47 -51.5 83t-103.5 36h-5q-63 0 -104 -36
t-52 -83q-2 -18 -2 -56q0 -36 2 -56q11 -47 52 -82.5t104 -35.5h5q62 0 103 35.5t52 82.5q2 20 2 56z" />
    <glyph glyph-name="seven" unicode="7" horiz-adv-x="510" 
d="M471 680v-2l-318 -678h-54l296 633h-340v47h416z" />
    <glyph glyph-name="seven.tf" horiz-adv-x="600" 
d="M529 680v-2l-318 -678h-54l296 633h-340v47h416z" />
    <glyph glyph-name="eight" unicode="8" horiz-adv-x="578" 
d="M476.5 297q35.5 -47 35.5 -107v-6q0 -56 -29 -101t-79.5 -70t-111.5 -25h-5q-62 0 -112.5 25t-79.5 70t-29 101v6q0 60 35.5 107t95.5 69q-46 21 -73 60t-27 88v6q0 49 25 88.5t68.5 61.5t96.5 22h5q52 0 95.5 -22t68.5 -61.5t25 -88.5v-6q0 -49 -27 -88t-73 -60
q60 -22 95.5 -69zM197 411.5q35 -25.5 90 -25.5h5q54 0 89 25.5t45 61.5q2 14 2 44q0 31 -2 43q-10 36 -45 61.5t-89 25.5h-5q-55 0 -90 -25.5t-45 -61.5q-1 -6 -1 -43t1 -44q10 -36 45 -61.5zM456 187q0 36 -2 50q-6 25 -27.5 49.5t-56 40.5t-78.5 16h-5q-45 0 -79.5 -16
t-56 -40.5t-27.5 -49.5q-2 -14 -2 -50q0 -34 2 -50q6 -25 27.5 -49t56 -40t79.5 -16h5q44 0 78.5 16t56 40t27.5 49q2 16 2 50z" />
    <glyph glyph-name="eight.tf" horiz-adv-x="600" 
d="M488.5 297q35.5 -47 35.5 -107v-6q0 -56 -29 -101t-79.5 -70t-111.5 -25h-5q-62 0 -112.5 25t-79.5 70t-29 101v6q0 60 35.5 107t95.5 69q-46 21 -73 60t-27 88v6q0 49 25 88.5t68.5 61.5t96.5 22h5q52 0 95.5 -22t68.5 -61.5t25 -88.5v-6q0 -49 -27 -88t-73 -60
q60 -22 95.5 -69zM209 411.5q35 -25.5 90 -25.5h5q54 0 89 25.5t45 61.5q2 14 2 44q0 31 -2 43q-10 36 -45 61.5t-89 25.5h-5q-55 0 -90 -25.5t-45 -61.5q-1 -6 -1 -43t1 -44q10 -36 45 -61.5zM468 187q0 36 -2 50q-6 25 -27.5 49.5t-56 40.5t-78.5 16h-5q-45 0 -79.5 -16
t-56 -40.5t-27.5 -49.5q-2 -14 -2 -50q0 -34 2 -50q6 -25 27.5 -49t56 -40t79.5 -16h5q44 0 78.5 16t56 40t27.5 49q2 16 2 50z" />
    <glyph glyph-name="nine" unicode="9" horiz-adv-x="557" 
d="M381.5 665q47.5 -27 75.5 -75.5t28 -109.5v-7q0 -32 -9 -64t-30 -70l-195 -339h-57l162 281q-43 -20 -82 -20h-5q-57 0 -104 27.5t-75 75.5t-28 109v7q0 61 28 109.5t76 75.5t105 27h5q58 0 105.5 -27zM429 477q0 38 -2 56q-10 45 -50 79.5t-101 34.5h-5
q-61 0 -101 -34.5t-50 -79.5q-2 -18 -2 -56q0 -40 2 -56q10 -46 50 -80.5t101 -34.5h5q61 0 101 34.5t50 80.5q2 16 2 56z" />
    <glyph glyph-name="nine.tf" horiz-adv-x="600" 
d="M400.5 665q47.5 -27 75.5 -75.5t28 -109.5v-7q0 -32 -9 -64t-30 -70l-195 -339h-57l162 281q-43 -20 -82 -20h-5q-57 0 -104 27.5t-75 75.5t-28 109v7q0 61 28 109.5t76 75.5t105 27h5q58 0 105.5 -27zM448 477q0 38 -2 56q-10 45 -50 79.5t-101 34.5h-5
q-61 0 -101 -34.5t-50 -79.5q-2 -18 -2 -56q0 -40 2 -56q10 -46 50 -80.5t101 -34.5h5q61 0 101 34.5t50 80.5q2 16 2 56z" />
    <glyph glyph-name="uni2080" unicode="&#x2080;" horiz-adv-x="431" 
d="M136 -86.5q-36 21.5 -57 62.5t-21 97v83q0 56 21 97t57 62.5t78 21.5h4q42 0 77.5 -21.5t56.5 -62.5t21 -97v-83q0 -56 -21 -97t-56.5 -62.5t-77.5 -21.5h-4q-42 0 -78 21.5zM218 -69q43 0 70.5 28.5t34.5 61.5q2 32 2 93q0 60 -2 94q-7 33 -35 61t-70 28h-4
q-43 0 -70.5 -27.5t-34.5 -61.5q-2 -18 -2 -94q0 -75 2 -93q6 -34 34 -62t71 -28h4z" />
    <glyph glyph-name="uni2081" unicode="&#x2081;" horiz-adv-x="297" 
d="M178 -100h-46v387h-58l20 41h84v-428z" />
    <glyph glyph-name="uni2082" unicode="&#x2082;" horiz-adv-x="390" 
d="M340 -58v-42h-296v1l176 207q28 32 39 49.5t15 31.5l1 26l-1 26q-7 24 -29.5 40.5t-54.5 16.5h-3q-36 0 -57.5 -20.5t-27.5 -52.5h-48q7 50 43.5 81t89.5 31h3q55 0 93.5 -34.5t38.5 -86.5v-1q0 -29 -15 -58t-53 -73l-122 -142h208z" />
    <glyph glyph-name="uni2083" unicode="&#x2083;" horiz-adv-x="405" 
d="M309.5 124q37.5 -38 37.5 -93v-4q0 -58 -41.5 -96.5t-101.5 -38.5h-4q-57 0 -98 32.5t-47 83.5h48q4 -33 30.5 -55t66.5 -22h4q36 0 60.5 19t34.5 47q2 12 2 32q0 18 -2 32q-11 29 -34.5 47.5t-60.5 18.5h-61l115 160h-182v41h260v-1l-118 -161q54 -4 91.5 -42z" />
    <glyph glyph-name="uni2084" unicode="&#x2084;" horiz-adv-x="415" 
d="M337 157v-257h-46v110h-244v1l152 317h49l-134 -276h177v105h46z" />
    <glyph glyph-name="uni2085" unicode="&#x2085;" horiz-adv-x="402" 
d="M105.5 -75.5q-41.5 32.5 -47.5 83.5h48q4 -32 31 -54.5t66 -22.5h3q38 0 62 19t33 47q2 7 2 32q0 24 -2 32q-9 28 -33 47t-62 19h-122v201h239v-41h-196v-121h82q38 0 70.5 -17.5t51.5 -48t19 -69.5v-4q0 -39 -19.5 -69.5t-52.5 -48t-72 -17.5h-3q-56 0 -97.5 32.5z" />
    <glyph glyph-name="uni2086" unicode="&#x2086;" horiz-adv-x="402" 
d="M279 155q32 -18 51 -49.5t19 -70.5v-4q0 -40 -19.5 -71.5t-52 -49.5t-71.5 -18h-4q-39 0 -71.5 18t-51.5 49.5t-19 71.5v4q0 41 26 88l122 205h49l-99 -165q25 10 47 10h4q38 0 70 -18zM301 34q0 20 -2 32q-5 26 -30 47.5t-63 21.5h-4q-37 0 -62 -21t-31 -48
q-2 -10 -2 -35q0 -20 2 -32q6 -26 30.5 -47t62.5 -21h4q38 0 63 21t30 47q2 10 2 35z" />
    <glyph glyph-name="uni2087" unicode="&#x2087;" horiz-adv-x="372" 
d="M333 326v-1l-207 -427h-47l187 387h-215v41h282z" />
    <glyph glyph-name="uni2088" unicode="&#x2088;" horiz-adv-x="407" 
d="M330.5 84q21.5 -28 21.5 -65v-4q0 -54 -42.5 -89.5t-104.5 -35.5h-3q-62 0 -104.5 35.5t-42.5 89.5v4q0 37 21.5 65t57.5 43q-28 15 -44 39.5t-16 53.5v4q0 48 37 79t91 31h3q54 0 91 -31t37 -79v-4q0 -30 -16 -54t-44 -39q36 -15 57.5 -43zM121 194q6 -20 27 -34.5
t54 -14.5h3q32 0 53.5 14.5t28.5 34.5l1 26l-1 27q-7 20 -28.5 34.5t-53.5 14.5h-3q-33 0 -54 -14.5t-27 -34.5q-1 -4 -1 -27q0 -21 1 -26zM305 18l-1 30q-8 24 -34.5 42t-64.5 18h-3q-40 0 -66 -19t-32 -41q-2 -10 -2 -30q0 -22 2 -30q6 -23 33 -41.5t65 -18.5h3
q39 0 65.5 18.5t33.5 41.5z" />
    <glyph glyph-name="uni2089" unicode="&#x2089;" horiz-adv-x="397" 
d="M267.5 317.5q32.5 -17.5 51.5 -49t19 -70.5v-4q0 -41 -27 -88l-123 -208h-50l102 170q-24 -9 -46 -9h-3q-37 0 -68.5 17.5t-50 48.5t-18.5 69v4q0 39 19 70.5t51 49t70 17.5h3q38 0 70.5 -17.5zM291 197q0 15 -2 33q-7 26 -31 46t-61 20h-3q-36 0 -60 -20t-31 -46
q-2 -18 -2 -35q0 -12 2 -32q7 -27 31 -46.5t60 -19.5h3q38 0 62 20.5t30 45.5q2 22 2 34z" />
    <glyph glyph-name="zero.dnom" horiz-adv-x="431" 
d="M136 13.5q-36 21.5 -57 62.5t-21 97v83q0 56 21 97t57 62.5t78 21.5h4q42 0 77.5 -21.5t56.5 -62.5t21 -97v-83q0 -56 -21 -97t-56.5 -62.5t-77.5 -21.5h-4q-42 0 -78 21.5zM218 31q43 0 70.5 28.5t34.5 61.5q2 32 2 93q0 60 -2 94q-7 33 -35 61t-70 28h-4
q-43 0 -70.5 -27.5t-34.5 -61.5q-2 -18 -2 -94q0 -75 2 -93q6 -34 34 -62t71 -28h4z" />
    <glyph glyph-name="one.dnom" horiz-adv-x="297" 
d="M178 0h-46v387h-58l20 41h84v-428z" />
    <glyph glyph-name="two.dnom" horiz-adv-x="390" 
d="M340 42v-42h-296v1l176 207q28 32 39 49.5t15 31.5l1 26l-1 26q-7 24 -29.5 40.5t-54.5 16.5h-3q-36 0 -57.5 -20.5t-27.5 -52.5h-48q7 50 43.5 81t89.5 31h3q55 0 93.5 -34.5t38.5 -86.5v-1q0 -29 -15 -58t-53 -73l-122 -142h208z" />
    <glyph glyph-name="three.dnom" horiz-adv-x="405" 
d="M309.5 224q37.5 -38 37.5 -93v-4q0 -58 -41.5 -96.5t-101.5 -38.5h-4q-57 0 -98 32.5t-47 83.5h48q4 -33 30.5 -55t66.5 -22h4q36 0 60.5 19t34.5 47q2 12 2 32q0 18 -2 32q-11 29 -34.5 47.5t-60.5 18.5h-61l115 160h-182v41h260v-1l-118 -161q54 -4 91.5 -42z" />
    <glyph glyph-name="four.dnom" horiz-adv-x="415" 
d="M337 257v-257h-46v110h-244v1l152 317h49l-134 -276h177v105h46z" />
    <glyph glyph-name="five.dnom" horiz-adv-x="402" 
d="M105.5 24.5q-41.5 32.5 -47.5 83.5h48q4 -32 31 -54.5t66 -22.5h3q38 0 62 19t33 47q2 7 2 32q0 24 -2 32q-9 28 -33 47t-62 19h-122v201h239v-41h-196v-121h82q38 0 70.5 -17.5t51.5 -48t19 -69.5v-4q0 -39 -19.5 -69.5t-52.5 -48t-72 -17.5h-3q-56 0 -97.5 32.5z" />
    <glyph glyph-name="six.dnom" horiz-adv-x="402" 
d="M279 255q32 -18 51 -49.5t19 -70.5v-4q0 -40 -19.5 -71.5t-52 -49.5t-71.5 -18h-4q-39 0 -71.5 18t-51.5 49.5t-19 71.5v4q0 41 26 88l122 205h49l-99 -165q25 10 47 10h4q38 0 70 -18zM301 134q0 20 -2 32q-5 26 -30 47.5t-63 21.5h-4q-37 0 -62 -21t-31 -48
q-2 -10 -2 -35q0 -20 2 -32q6 -26 30.5 -47t62.5 -21h4q38 0 63 21t30 47q2 10 2 35z" />
    <glyph glyph-name="seven.dnom" horiz-adv-x="372" 
d="M333 428v-1l-207 -427h-47l187 387h-215v41h282z" />
    <glyph glyph-name="eight.dnom" horiz-adv-x="407" 
d="M330.5 186q21.5 -28 21.5 -65v-4q0 -54 -42.5 -89.5t-104.5 -35.5h-3q-62 0 -104.5 35.5t-42.5 89.5v4q0 37 21.5 65t57.5 43q-28 15 -44 39.5t-16 53.5v4q0 48 37 79t91 31h3q54 0 91 -31t37 -79v-4q0 -30 -16 -54t-44 -39q36 -15 57.5 -43zM121 296q6 -20 27 -34.5
t54 -14.5h3q32 0 53.5 14.5t28.5 34.5l1 26l-1 27q-7 20 -28.5 34.5t-53.5 14.5h-3q-33 0 -54 -14.5t-27 -34.5q-1 -4 -1 -27q0 -21 1 -26zM305 120l-1 30q-8 24 -34.5 42t-64.5 18h-3q-40 0 -66 -19t-32 -41q-2 -10 -2 -30q0 -22 2 -30q6 -23 33 -41.5t65 -18.5h3
q39 0 65.5 18.5t33.5 41.5z" />
    <glyph glyph-name="nine.dnom" horiz-adv-x="397" 
d="M267.5 419.5q32.5 -17.5 51.5 -49t19 -70.5v-4q0 -41 -27 -88l-123 -208h-50l102 170q-24 -9 -46 -9h-3q-37 0 -68.5 17.5t-50 48.5t-18.5 69v4q0 39 19 70.5t51 49t70 17.5h3q38 0 70.5 -17.5zM291 299q0 15 -2 33q-7 26 -31 46t-61 20h-3q-36 0 -60 -20t-31 -46
q-2 -18 -2 -35q0 -12 2 -32q7 -27 31 -46.5t60 -19.5h3q38 0 62 20.5t30 45.5q2 22 2 34z" />
    <glyph glyph-name="zero.numr" horiz-adv-x="431" 
d="M136 265.5q-36 21.5 -57 62.5t-21 97v83q0 56 21 97t57 62.5t78 21.5h4q42 0 77.5 -21.5t56.5 -62.5t21 -97v-83q0 -56 -21 -97t-56.5 -62.5t-77.5 -21.5h-4q-42 0 -78 21.5zM218 283q43 0 70.5 28.5t34.5 61.5q2 32 2 93q0 60 -2 94q-7 33 -35 61t-70 28h-4
q-43 0 -70.5 -27.5t-34.5 -61.5q-2 -18 -2 -94q0 -75 2 -93q6 -34 34 -62t71 -28h4z" />
    <glyph glyph-name="one.numr" horiz-adv-x="297" 
d="M178 252h-46v387h-58l20 41h84v-428z" />
    <glyph glyph-name="two.numr" horiz-adv-x="390" 
d="M340 294v-42h-296v1l176 207q28 32 39 49.5t15 31.5l1 26l-1 26q-7 24 -29.5 40.5t-54.5 16.5h-3q-36 0 -57.5 -20.5t-27.5 -52.5h-48q7 50 43.5 81t89.5 31h3q55 0 93.5 -34.5t38.5 -86.5v-1q0 -29 -15 -58t-53 -73l-122 -142h208z" />
    <glyph glyph-name="three.numr" horiz-adv-x="405" 
d="M309.5 476q37.5 -38 37.5 -93v-4q0 -58 -41.5 -96.5t-101.5 -38.5h-4q-57 0 -98 32.5t-47 83.5h48q4 -33 30.5 -55t66.5 -22h4q36 0 60.5 19t34.5 47q2 12 2 32q0 18 -2 32q-11 29 -34.5 47.5t-60.5 18.5h-61l115 160h-182v41h260v-1l-118 -161q54 -4 91.5 -42z" />
    <glyph glyph-name="four.numr" horiz-adv-x="415" 
d="M337 509v-257h-46v110h-244v1l152 317h49l-134 -276h177v105h46z" />
    <glyph glyph-name="five.numr" horiz-adv-x="402" 
d="M105.5 276.5q-41.5 32.5 -47.5 83.5h48q4 -32 31 -54.5t66 -22.5h3q38 0 62 19t33 47q2 7 2 32q0 24 -2 32q-9 28 -33 47t-62 19h-122v201h239v-41h-196v-121h82q38 0 70.5 -17.5t51.5 -48t19 -69.5v-4q0 -39 -19.5 -69.5t-52.5 -48t-72 -17.5h-3q-56 0 -97.5 32.5z" />
    <glyph glyph-name="six.numr" horiz-adv-x="402" 
d="M279 507q32 -18 51 -49.5t19 -70.5v-4q0 -40 -19.5 -71.5t-52 -49.5t-71.5 -18h-4q-39 0 -71.5 18t-51.5 49.5t-19 71.5v4q0 41 26 88l122 205h49l-99 -165q25 10 47 10h4q38 0 70 -18zM301 386q0 20 -2 32q-5 26 -30 47.5t-63 21.5h-4q-37 0 -62 -21t-31 -48
q-2 -10 -2 -35q0 -20 2 -32q6 -26 30.5 -47t62.5 -21h4q38 0 63 21t30 47q2 10 2 35z" />
    <glyph glyph-name="seven.numr" horiz-adv-x="372" 
d="M333 680v-1l-207 -427h-47l187 387h-215v41h282z" />
    <glyph glyph-name="eight.numr" horiz-adv-x="407" 
d="M330.5 438q21.5 -28 21.5 -65v-4q0 -54 -42.5 -89.5t-104.5 -35.5h-3q-62 0 -104.5 35.5t-42.5 89.5v4q0 37 21.5 65t57.5 43q-28 15 -44 39.5t-16 53.5v4q0 48 37 79t91 31h3q54 0 91 -31t37 -79v-4q0 -30 -16 -54t-44 -39q36 -15 57.5 -43zM121 548q6 -20 27 -34.5
t54 -14.5h3q32 0 53.5 14.5t28.5 34.5l1 26l-1 27q-7 20 -28.5 34.5t-53.5 14.5h-3q-33 0 -54 -14.5t-27 -34.5q-1 -4 -1 -27q0 -21 1 -26zM305 372l-1 30q-8 24 -34.5 42t-64.5 18h-3q-40 0 -66 -19t-32 -41q-2 -10 -2 -30q0 -22 2 -30q6 -23 33 -41.5t65 -18.5h3
q39 0 65.5 18.5t33.5 41.5z" />
    <glyph glyph-name="nine.numr" horiz-adv-x="397" 
d="M267.5 671.5q32.5 -17.5 51.5 -49t19 -70.5v-4q0 -41 -27 -88l-123 -208h-50l102 170q-24 -9 -46 -9h-3q-37 0 -68.5 17.5t-50 48.5t-18.5 69v4q0 39 19 70.5t51 49t70 17.5h3q38 0 70.5 -17.5zM291 551q0 15 -2 33q-7 26 -31 46t-61 20h-3q-36 0 -60 -20t-31 -46
q-2 -18 -2 -35q0 -12 2 -32q7 -27 31 -46.5t60 -19.5h3q38 0 62 20.5t30 45.5q2 22 2 34z" />
    <glyph glyph-name="uni2070" unicode="&#x2070;" horiz-adv-x="431" 
d="M136 363.5q-36 21.5 -57 62.5t-21 97v83q0 56 21 97t57 62.5t78 21.5h4q42 0 77.5 -21.5t56.5 -62.5t21 -97v-83q0 -56 -21 -97t-56.5 -62.5t-77.5 -21.5h-4q-42 0 -78 21.5zM218 381q43 0 70.5 28.5t34.5 61.5q2 32 2 93q0 60 -2 94q-7 33 -35 61t-70 28h-4
q-43 0 -70.5 -27.5t-34.5 -61.5q-2 -18 -2 -94q0 -75 2 -93q6 -34 34 -62t71 -28h4z" />
    <glyph glyph-name="uni00B9" unicode="&#xb9;" horiz-adv-x="297" 
d="M178 350h-46v387h-58l20 41h84v-428z" />
    <glyph glyph-name="uni00B2" unicode="&#xb2;" horiz-adv-x="390" 
d="M340 392v-42h-296v1l176 207q28 32 39 49.5t15 31.5l1 26l-1 26q-7 24 -29.5 40.5t-54.5 16.5h-3q-36 0 -57.5 -20.5t-27.5 -52.5h-48q7 50 43.5 81t89.5 31h3q55 0 93.5 -34.5t38.5 -86.5v-1q0 -29 -15 -58t-53 -73l-122 -142h208z" />
    <glyph glyph-name="uni00B3" unicode="&#xb3;" horiz-adv-x="405" 
d="M309.5 574q37.5 -38 37.5 -93v-4q0 -58 -41.5 -96.5t-101.5 -38.5h-4q-57 0 -98 32.5t-47 83.5h48q4 -33 30.5 -55t66.5 -22h4q36 0 60.5 19t34.5 47q2 12 2 32q0 18 -2 32q-11 29 -34.5 47.5t-60.5 18.5h-61l115 160h-182v41h260v-1l-118 -161q54 -4 91.5 -42z" />
    <glyph glyph-name="uni2074" unicode="&#x2074;" horiz-adv-x="415" 
d="M337 607v-257h-46v110h-244v1l152 317h49l-134 -276h177v105h46z" />
    <glyph glyph-name="uni2075" unicode="&#x2075;" horiz-adv-x="402" 
d="M105.5 374.5q-41.5 32.5 -47.5 83.5h48q4 -32 31 -54.5t66 -22.5h3q38 0 62 19t33 47q2 7 2 32q0 24 -2 32q-9 28 -33 47t-62 19h-122v201h239v-41h-196v-121h82q38 0 70.5 -17.5t51.5 -48t19 -69.5v-4q0 -39 -19.5 -69.5t-52.5 -48t-72 -17.5h-3q-56 0 -97.5 32.5z" />
    <glyph glyph-name="uni2076" unicode="&#x2076;" horiz-adv-x="402" 
d="M279 605q32 -18 51 -49.5t19 -70.5v-4q0 -40 -19.5 -71.5t-52 -49.5t-71.5 -18h-4q-39 0 -71.5 18t-51.5 49.5t-19 71.5v4q0 41 26 88l122 205h49l-99 -165q25 10 47 10h4q38 0 70 -18zM301 484q0 20 -2 32q-5 26 -30 47.5t-63 21.5h-4q-37 0 -62 -21t-31 -48
q-2 -10 -2 -35q0 -20 2 -32q6 -26 30.5 -47t62.5 -21h4q38 0 63 21t30 47q2 10 2 35z" />
    <glyph glyph-name="uni2077" unicode="&#x2077;" horiz-adv-x="372" 
d="M333 778v-1l-207 -427h-47l187 387h-215v41h282z" />
    <glyph glyph-name="uni2078" unicode="&#x2078;" horiz-adv-x="407" 
d="M330.5 536q21.5 -28 21.5 -65v-4q0 -54 -42.5 -89.5t-104.5 -35.5h-3q-62 0 -104.5 35.5t-42.5 89.5v4q0 37 21.5 65t57.5 43q-28 15 -44 39.5t-16 53.5v4q0 48 37 79t91 31h3q54 0 91 -31t37 -79v-4q0 -30 -16 -54t-44 -39q36 -15 57.5 -43zM121 646q6 -20 27 -34.5
t54 -14.5h3q32 0 53.5 14.5t28.5 34.5l1 26l-1 27q-7 20 -28.5 34.5t-53.5 14.5h-3q-33 0 -54 -14.5t-27 -34.5q-1 -4 -1 -27q0 -21 1 -26zM305 470l-1 30q-8 24 -34.5 42t-64.5 18h-3q-40 0 -66 -19t-32 -41q-2 -10 -2 -30q0 -22 2 -30q6 -23 33 -41.5t65 -18.5h3
q39 0 65.5 18.5t33.5 41.5z" />
    <glyph glyph-name="uni2079" unicode="&#x2079;" horiz-adv-x="397" 
d="M267.5 769.5q32.5 -17.5 51.5 -49t19 -70.5v-4q0 -41 -27 -88l-123 -208h-50l102 170q-24 -9 -46 -9h-3q-37 0 -68.5 17.5t-50 48.5t-18.5 69v4q0 39 19 70.5t51 49t70 17.5h3q38 0 70.5 -17.5zM291 649q0 15 -2 33q-7 26 -31 46t-61 20h-3q-36 0 -60 -20t-31 -46
q-2 -18 -2 -35q0 -12 2 -32q7 -27 31 -46.5t60 -19.5h3q38 0 62 20.5t30 45.5q2 22 2 34z" />
    <glyph glyph-name="fraction" unicode="&#x2044;" horiz-adv-x="214" 
d="M333 680h53l-506 -680h-52z" />
    <glyph glyph-name="onehalf" unicode="&#xbd;" horiz-adv-x="901" 
d="M178 252h-46v387h-58l20 41h84v-428zM630 680h53l-506 -680h-52zM851 42v-42h-296v1l176 207q28 32 39 49.5t15 31.5l1 26l-1 26q-7 24 -29.5 40.5t-54.5 16.5h-3q-36 0 -57.5 -20.5t-27.5 -52.5h-48q7 50 43.5 81t89.5 31h3q55 0 93.5 -34.5t38.5 -86.5v-1
q0 -29 -15 -58t-53 -73l-122 -142h208z" />
    <glyph glyph-name="onequarter" unicode="&#xbc;" horiz-adv-x="895" 
d="M178 252h-46v387h-58l20 41h84v-428zM630 680h53l-506 -680h-52zM817 257v-257h-46v110h-244v1l152 317h49l-134 -276h177v105h46z" />
    <glyph glyph-name="threequarters" unicode="&#xbe;" horiz-adv-x="1003" 
d="M309.5 476q37.5 -38 37.5 -93v-4q0 -58 -41.5 -96.5t-101.5 -38.5h-4q-57 0 -98 32.5t-47 83.5h48q4 -33 30.5 -55t66.5 -22h4q36 0 60.5 19t34.5 47q2 12 2 32q0 18 -2 32q-11 29 -34.5 47.5t-60.5 18.5h-61l115 160h-182v41h260v-1l-118 -161q54 -4 91.5 -42zM738 680
h53l-506 -680h-52zM925 257v-257h-46v110h-244v1l152 317h49l-134 -276h177v105h46z" />
    <glyph glyph-name="oneeighth" unicode="&#x215b;" horiz-adv-x="918" 
d="M178 252h-46v387h-58l20 41h84v-428zM630 680h53l-506 -680h-52zM841.5 186q21.5 -28 21.5 -65v-4q0 -54 -42.5 -89.5t-104.5 -35.5h-3q-62 0 -104.5 35.5t-42.5 89.5v4q0 37 21.5 65t57.5 43q-28 15 -44 39.5t-16 53.5v4q0 48 37 79t91 31h3q54 0 91 -31t37 -79v-4
q0 -30 -16 -54t-44 -39q36 -15 57.5 -43zM632 296q6 -20 27 -34.5t54 -14.5h3q32 0 53.5 14.5t28.5 34.5l1 26l-1 27q-7 20 -28.5 34.5t-53.5 14.5h-3q-33 0 -54 -14.5t-27 -34.5q-1 -4 -1 -27q0 -21 1 -26zM816 120l-1 30q-8 24 -34.5 42t-64.5 18h-3q-40 0 -66 -19
t-32 -41q-2 -10 -2 -30q0 -22 2 -30q6 -23 33 -41.5t65 -18.5h3q39 0 65.5 18.5t33.5 41.5z" />
    <glyph glyph-name="threeeighths" unicode="&#x215c;" horiz-adv-x="1026" 
d="M309.5 476q37.5 -38 37.5 -93v-4q0 -58 -41.5 -96.5t-101.5 -38.5h-4q-57 0 -98 32.5t-47 83.5h48q4 -33 30.5 -55t66.5 -22h4q36 0 60.5 19t34.5 47q2 12 2 32q0 18 -2 32q-11 29 -34.5 47.5t-60.5 18.5h-61l115 160h-182v41h260v-1l-118 -161q54 -4 91.5 -42zM738 680
h53l-506 -680h-52zM949.5 186q21.5 -28 21.5 -65v-4q0 -54 -42.5 -89.5t-104.5 -35.5h-3q-62 0 -104.5 35.5t-42.5 89.5v4q0 37 21.5 65t57.5 43q-28 15 -44 39.5t-16 53.5v4q0 48 37 79t91 31h3q54 0 91 -31t37 -79v-4q0 -30 -16 -54t-44 -39q36 -15 57.5 -43zM740 296
q6 -20 27 -34.5t54 -14.5h3q32 0 53.5 14.5t28.5 34.5l1 26l-1 27q-7 20 -28.5 34.5t-53.5 14.5h-3q-33 0 -54 -14.5t-27 -34.5q-1 -4 -1 -27q0 -21 1 -26zM924 120l-1 30q-8 24 -34.5 42t-64.5 18h-3q-40 0 -66 -19t-32 -41q-2 -10 -2 -30q0 -22 2 -30q6 -23 33 -41.5
t65 -18.5h3q39 0 65.5 18.5t33.5 41.5z" />
    <glyph glyph-name="fiveeighths" unicode="&#x215d;" horiz-adv-x="1023" 
d="M105.5 276.5q-41.5 32.5 -47.5 83.5h48q4 -32 31 -54.5t66 -22.5h3q38 0 62 19t33 47q2 7 2 32q0 24 -2 32q-9 28 -33 47t-62 19h-122v201h239v-41h-196v-121h82q38 0 70.5 -17.5t51.5 -48t19 -69.5v-4q0 -39 -19.5 -69.5t-52.5 -48t-72 -17.5h-3q-56 0 -97.5 32.5z
M735 680h53l-506 -680h-52zM946.5 186q21.5 -28 21.5 -65v-4q0 -54 -42.5 -89.5t-104.5 -35.5h-3q-62 0 -104.5 35.5t-42.5 89.5v4q0 37 21.5 65t57.5 43q-28 15 -44 39.5t-16 53.5v4q0 48 37 79t91 31h3q54 0 91 -31t37 -79v-4q0 -30 -16 -54t-44 -39q36 -15 57.5 -43z
M737 296q6 -20 27 -34.5t54 -14.5h3q32 0 53.5 14.5t28.5 34.5l1 26l-1 27q-7 20 -28.5 34.5t-53.5 14.5h-3q-33 0 -54 -14.5t-27 -34.5q-1 -4 -1 -27q0 -21 1 -26zM921 120l-1 30q-8 24 -34.5 42t-64.5 18h-3q-40 0 -66 -19t-32 -41q-2 -10 -2 -30q0 -22 2 -30
q6 -23 33 -41.5t65 -18.5h3q39 0 65.5 18.5t33.5 41.5z" />
    <glyph glyph-name="seveneighths" unicode="&#x215e;" horiz-adv-x="960" 
d="M333 680v-1l-207 -427h-47l187 387h-215v41h282zM672 680h53l-506 -680h-52zM883.5 186q21.5 -28 21.5 -65v-4q0 -54 -42.5 -89.5t-104.5 -35.5h-3q-62 0 -104.5 35.5t-42.5 89.5v4q0 37 21.5 65t57.5 43q-28 15 -44 39.5t-16 53.5v4q0 48 37 79t91 31h3q54 0 91 -31
t37 -79v-4q0 -30 -16 -54t-44 -39q36 -15 57.5 -43zM674 296q6 -20 27 -34.5t54 -14.5h3q32 0 53.5 14.5t28.5 34.5l1 26l-1 27q-7 20 -28.5 34.5t-53.5 14.5h-3q-33 0 -54 -14.5t-27 -34.5q-1 -4 -1 -27q0 -21 1 -26zM858 120l-1 30q-8 24 -34.5 42t-64.5 18h-3
q-40 0 -66 -19t-32 -41q-2 -10 -2 -30q0 -22 2 -30q6 -23 33 -41.5t65 -18.5h3q39 0 65.5 18.5t33.5 41.5z" />
    <glyph glyph-name="period" unicode="." horiz-adv-x="237" 
d="M79 87h78v-87h-78v87z" />
    <glyph glyph-name="comma" unicode="," horiz-adv-x="209" 
d="M79 87h51v-142l-50 -47h-1v189z" />
    <glyph glyph-name="colon" unicode=":" horiz-adv-x="257" 
d="M89 87h78v-87h-78v87zM89 478h78v-87h-78v87z" />
    <glyph glyph-name="semicolon" unicode=";" horiz-adv-x="257" 
d="M103 87h51v-142l-50 -47h-1v189zM89 478h78v-87h-78v87z" />
    <glyph glyph-name="ellipsis" unicode="&#x2026;" horiz-adv-x="671" 
d="M514 87h78v-87h-78v87zM296 87h78v-87h-78v87zM79 87h78v-87h-78v87z" />
    <glyph glyph-name="exclam" unicode="!" horiz-adv-x="311" 
d="M126 680h60l-11 -486h-38zM116 87h79v-87h-79v87z" />
    <glyph glyph-name="exclamdown" unicode="&#xa1;" horiz-adv-x="311" 
d="M195 391h-79v88h79v-88zM185 -201h-60l11 485h38z" />
    <glyph glyph-name="question" unicode="?" horiz-adv-x="470" 
d="M300 360q51 85 58 122q2 14 2 44q0 24 -2 38q-9 33 -41 58t-80 25h-5q-53 0 -86 -31.5t-40 -84.5h-56q8 71 59 116t123 45h5q49 0 89.5 -22t64.5 -60.5t24 -86.5v-7q0 -38 -16.5 -75.5t-59.5 -107.5l-87 -143h-54zM184 87h79v-87h-79v87z" />
    <glyph glyph-name="questiondown" unicode="&#xbf;" horiz-adv-x="421" 
d="M286 391h-78v88h78v-88zM170 118q-30 -50 -42.5 -76.5t-15.5 -44.5q-2 -14 -2 -44q0 -25 2 -39q10 -33 41.5 -57.5t79.5 -24.5h5q54 0 86.5 31t40.5 84h55q-8 -71 -59 -116t-123 -45h-5q-49 0 -89.5 22t-64.5 61t-24 87v6q0 38 16.5 75t59.5 109l87 143h54z" />
    <glyph glyph-name="periodcentered" unicode="&#xb7;" horiz-adv-x="237" 
d="M79 362h78v-87h-78v87z" />
    <glyph glyph-name="bullet" unicode="&#x2022;" horiz-adv-x="524" 
d="M184 192q-36 21 -57 56.5t-21 77.5t21 77.5t57 56.5t78 21t78 -21t57 -56.5t21 -77.5t-21 -77.5t-57 -56.5t-78 -21t-78 21z" />
    <glyph glyph-name="asterisk" unicode="*" horiz-adv-x="501" 
d="M273 547l130 -61l-23 -40l-117 82l11 -143h-46l11 143l-118 -82l-23 40l130 62l-130 61l23 40l118 -82l-11 143h46l-11 -142l117 81l23 -40z" />
    <glyph glyph-name="numbersign" unicode="#" horiz-adv-x="662" 
d="M489 438l-42 -195h144l-8 -40h-144l-43 -203h-42l43 203h-191l-43 -203h-42l43 203h-143l9 40h142l42 195h-143l8 40h143l43 202h42l-43 -202h191l43 202h42l-43 -202h144l-9 -40h-143zM447 438h-191l-42 -195h191z" />
    <glyph glyph-name="slash" unicode="/" horiz-adv-x="447" 
d="M339 710h49l-290 -790h-49z" />
    <glyph glyph-name="backslash" unicode="\" horiz-adv-x="447" 
d="M349 -80l-290 790h49l290 -790h-49z" />
    <glyph glyph-name="parenleft" unicode="(" horiz-adv-x="307" 
d="M119.5 94q-30.5 90 -30.5 209v34q0 119 30.5 209t80.5 164h49q-43 -58 -70.5 -139t-34.5 -161q-1 -26 -1 -90q0 -63 1 -90q7 -80 34.5 -161t70.5 -139h-49q-50 74 -80.5 164z" />
    <glyph glyph-name="parenright" unicode=")" horiz-adv-x="307" 
d="M187.5 546q30.5 -90 30.5 -209v-34q0 -119 -30.5 -209t-80.5 -164h-49q43 58 70.5 139t34.5 161q1 26 1 90q0 63 -1 90q-7 80 -34.5 161t-70.5 139h49q50 -74 80.5 -164z" />
    <glyph glyph-name="braceleft" unicode="{" horiz-adv-x="354" 
d="M178.5 360.5q-17.5 -28.5 -46.5 -38.5q29 -10 46.5 -39t17.5 -75v-167q8 -36 27 -53t66 -17h24v-39h-34q-59 0 -95.5 35.5t-36.5 126.5v153q-7 25 -23.5 40.5t-42.5 15.5h-13v37h13q26 0 42 16t24 40v152q0 91 36.5 126.5t95.5 35.5h34v-39h-24q-47 0 -66 -17t-27 -53
v-165q0 -47 -17.5 -75.5z" />
    <glyph glyph-name="braceright" unicode="}" horiz-adv-x="354" 
d="M285 339v-38h-13q-48 0 -65 -55v-152q0 -91 -36.5 -126.5t-96.5 -35.5h-33v39h24q47 0 65.5 17t26.5 53v165q0 46 17.5 75t46.5 39q-29 10 -46.5 39t-17.5 75v167q-8 36 -26.5 53t-65.5 17h-24v39h33q60 0 96.5 -35.5t36.5 -126.5v-154q17 -55 65 -55h13z" />
    <glyph glyph-name="bracketleft" unicode="[" horiz-adv-x="350" 
d="M155 671v-702h132v-39h-181v780h181v-39h-132z" />
    <glyph glyph-name="bracketright" unicode="]" horiz-adv-x="350" 
d="M244 -70h-181v39h132v702h-132v39h181v-780z" />
    <glyph glyph-name="hyphen" unicode="-" horiz-adv-x="350" 
d="M60 316h230v-48h-230v48z" />
    <glyph glyph-name="uni00AD" unicode="&#xad;" horiz-adv-x="350" 
d="M60 316h230v-48h-230v48z" />
    <glyph glyph-name="endash" unicode="&#x2013;" horiz-adv-x="681" 
d="M70 314h541v-44h-541v44z" />
    <glyph glyph-name="emdash" unicode="&#x2014;" horiz-adv-x="990" 
d="M70 314h850v-44h-850v44z" />
    <glyph glyph-name="underscore" unicode="_" horiz-adv-x="526" 
d="M-5 -88h536v-34h-536v34z" />
    <glyph glyph-name="quotesinglbase" unicode="&#x201a;" horiz-adv-x="207" 
d="M79 87h49v-142l-48 -44h-1v186z" />
    <glyph glyph-name="quotedblbase" unicode="&#x201e;" horiz-adv-x="342" 
d="M79 87h49v-142l-48 -44h-1v186zM214 87h49v-142l-48 -44h-1v186z" />
    <glyph glyph-name="quotedblleft" unicode="&#x201c;" horiz-adv-x="344" 
d="M128 503h-49v143l48 43h1v-186zM265 503h-49v143l48 43h1v-186z" />
    <glyph glyph-name="quotedblright" unicode="&#x201d;" horiz-adv-x="344" 
d="M79 680h49v-142l-48 -44h-1v186zM216 680h49v-142l-48 -44h-1v186z" />
    <glyph glyph-name="quoteleft" unicode="&#x2018;" horiz-adv-x="207" 
d="M128 503h-49v143l48 43h1v-186z" />
    <glyph glyph-name="quoteright" unicode="&#x2019;" horiz-adv-x="207" 
d="M79 680h49v-142l-48 -44h-1v186z" />
    <glyph glyph-name="guillemotleft" unicode="&#xab;" horiz-adv-x="547" 
d="M264 262l150 197h54l-151 -197l151 -197h-54zM71 262l150 197h54l-151 -197l151 -197h-54z" />
    <glyph glyph-name="guillemotright" unicode="&#xbb;" horiz-adv-x="547" 
d="M272 65l151 197l-151 197h55l149 -197l-149 -197h-55zM79 65l151 197l-151 197h55l149 -197l-149 -197h-55z" />
    <glyph glyph-name="guilsinglleft" unicode="&#x2039;" horiz-adv-x="355" 
d="M71 262l150 197h54l-151 -197l151 -197h-54z" />
    <glyph glyph-name="guilsinglright" unicode="&#x203a;" horiz-adv-x="355" 
d="M79 65l151 197l-151 197h55l149 -197l-149 -197h-55z" />
    <glyph glyph-name="quotedbl" unicode="&#x22;" horiz-adv-x="353" 
d="M79 680h49v-168h-49v168zM225 680h49v-168h-49v168z" />
    <glyph glyph-name="quotesingle" unicode="'" horiz-adv-x="207" 
d="M79 680h49v-168h-49v168z" />
    <glyph glyph-name="cent" unicode="&#xa2;" horiz-adv-x="510" 
d="M396 525q-33 19 -73 20v-411q40 1 73.5 20t57.5 45v-59q-22 -20 -55.5 -35.5t-75.5 -16.5v-88h-36v89q-54 7 -97 37.5t-67.5 82.5t-24.5 121v19q0 103 53 166.5t136 73.5v91h36v-90q42 -1 76 -16.5t55 -35.5v-58q-25 26 -58 45zM202 178q35 -34 85 -42v407
q-50 -8 -85 -42t-46 -73q-3 -24 -3 -88q0 -63 3 -89q11 -39 46 -73z" />
    <glyph glyph-name="currency" unicode="&#xa4;" horiz-adv-x="694" 
d="M552 240q-13 -36 -37 -64l70 -70l-30 -30l-70 70q-60 -49 -138 -49q-80 0 -138 49l-70 -70l-30 30l70 70q-24 28 -37 64t-13 75q0 78 49 138l-69 69l30 30l69 -69q61 50 139 50t139 -50l69 69l30 -30l-69 -69q49 -60 49 -138q0 -39 -13 -75zM200 228q23 -40 62 -63.5
t85 -23.5t85 23.5t62 63.5t23 87t-23 86.5t-62 63t-85 23.5t-85 -23.5t-62 -63t-23 -86.5t23 -87z" />
    <glyph glyph-name="dollar" unicode="$" horiz-adv-x="583" 
d="M430.5 310.5q26.5 -21.5 45.5 -55t19 -78.5v-3q0 -77 -51 -128.5t-130 -56.5v-78h-35v77q-51 3 -95 26.5t-71.5 62.5t-31.5 88h51q7 -56 48 -92t99 -41v318l-45 27q-56 33 -88 68t-32 90v3q0 42 22 77t60 56t83 21v59h35v-61q48 -7 88.5 -37t63.5 -70l-39 -26
q-50 74 -113 88v-259l52 -31q38 -23 64.5 -44.5zM279 408v240q-56 -1 -88.5 -37t-28.5 -93q8 -28 28.5 -48.5t66.5 -48.5zM414.5 83q36.5 45 31.5 113q-8 34 -31 60t-77 59l-24 14v-297q64 6 100.5 51z" />
    <glyph glyph-name="Euro" unicode="&#x20ac;" horiz-adv-x="623" 
d="M310.5 614.5q-44.5 -28.5 -69.5 -75.5t-29 -100h240v-37h-241v-109h241v-37h-241q1 -57 25.5 -107.5t70 -82t107.5 -31.5h7q37 0 65 9t56 27v-50q-29 -17 -57.5 -25t-64.5 -8h-7q-104 0 -173.5 71t-82.5 197h-86v37h84v14v65q0 20 1 30h-85v37h88q16 119 84.5 185.5
t169.5 66.5h7q37 0 65 -8.5t57 -25.5v-50q-29 18 -56.5 27t-64.5 9h-7q-59 0 -103.5 -28.5z" />
    <glyph glyph-name="florin" unicode="&#x192;" horiz-adv-x="434" 
d="M397 711.5q12 -1.5 17 -3.5l-9 -41q-12 2 -25 2q-45 0 -67 -34l-33 -156h83v-39h-91l-113 -531q-24 -109 -120 -109q-10 0 -22 1.5t-17 3.5l9 41q12 -2 25 -2q45 0 67 34l119 562h-77v39h85l27 126q24 108 120 108q10 0 22 -1.5z" />
    <glyph glyph-name="sterling" unicode="&#xa3;" horiz-adv-x="637" 
d="M555 47v-47h-448v47q22 4 44 27t30 56v171h-94v40h94v160q0 58 23.5 101.5t64 66.5t90.5 23h6q61 0 107.5 -31t74.5 -82l-39 -24q-56 94 -145 94h-4q-52 0 -86 -32t-41 -79v-197h192v-40h-192v-126q0 -88 -60 -128h383z" />
    <glyph glyph-name="yen" unicode="&#xa5;" horiz-adv-x="615" 
d="M351 345h147v-36h-163v-110h163v-37h-163v-162h-53v162h-164v37h164v110h-164v36h147l-208 335h59l193 -316l192 316h57z" />
    <glyph glyph-name="plus" unicode="+" horiz-adv-x="628" 
d="M549 301h-213v-214h-44v214h-213v42h213v214h44v-214h213v-42z" />
    <glyph glyph-name="minus" unicode="&#x2212;" horiz-adv-x="628" 
d="M79 343h470v-42h-470v42z" />
    <glyph glyph-name="multiply" unicode="&#xd7;" horiz-adv-x="564" 
d="M313 321l171 -172l-29 -29l-171 172l-173 -173l-32 32l173 172l-172 172l30 29l171 -171l173 172l31 -32z" />
    <glyph glyph-name="divide" unicode="&#xf7;" horiz-adv-x="628" 
d="M79 343h470v-42h-470v42zM273 531h81v-82h-81v82zM273 196h81v-82h-81v82z" />
    <glyph glyph-name="equal" unicode="=" horiz-adv-x="628" 
d="M79 247h470v-42h-470v42zM79 439h470v-42h-470v42z" />
    <glyph glyph-name="notequal" unicode="&#x2260;" horiz-adv-x="628" 
d="M367 397l-63 -150h245v-42h-263l-50 -118h-43l50 118h-164v42h182l63 150h-245v42h263l50 118h43l-50 -118h164v-42h-182z" />
    <glyph glyph-name="greater" unicode="&#x3e;" horiz-adv-x="628" 
d="M549 324v-4l-470 -184v42l377 144l-377 144v42z" />
    <glyph glyph-name="less" unicode="&#x3c;" horiz-adv-x="628" 
d="M549 466l-378 -144l378 -144v-42l-470 184v4l470 184v-42z" />
    <glyph glyph-name="greaterequal" unicode="&#x2265;" horiz-adv-x="628" 
d="M549 326v-4l-470 -181v41l374 142l-374 141v42zM79 42h470v-42h-470v42z" />
    <glyph glyph-name="lessequal" unicode="&#x2264;" horiz-adv-x="600" 
d="M547 465l-374 -141l374 -142v-41l-470 181v4l470 181v-42zM77 42h470v-42h-470v42z" />
    <glyph glyph-name="plusminus" unicode="&#xb1;" horiz-adv-x="628" 
d="M549 352v-41h-213v-192h-44v192h-213v41h213v193h44v-193h213zM79 42h470v-42h-470v42z" />
    <glyph glyph-name="approxequal" unicode="&#x2248;" horiz-adv-x="628" 
d="M390 355.5q-28 6.5 -74 19.5q-48 13 -75 19t-52 6q-68 0 -110 -42v51q18 15 46.5 25t63.5 10q42 0 127 -25q7 -2 35.5 -9.5t51 -11.5t40.5 -4q64 0 106 41v-51q-41 -35 -106 -35q-25 0 -53 6.5zM390 190.5q-28 6.5 -74 19.5q-48 13 -75 19t-52 6q-32 0 -60.5 -10.5
t-49.5 -30.5v50q17 16 46.5 26t63.5 10q25 0 52 -6t75 -19q46 -13 74 -19.5t53 -6.5q64 0 106 42v-51q-42 -36 -106 -36q-25 0 -53 6.5z" />
    <glyph glyph-name="logicalnot" unicode="&#xac;" horiz-adv-x="628" 
d="M549 343v-231h-44v189h-426v42h470z" />
    <glyph glyph-name="asciitilde" unicode="~" horiz-adv-x="611" 
d="M111 365q29 35 85 35q27 0 53.5 -10.5t62.5 -29.5q33 -18 57 -27.5t46 -9.5q67 0 72 78h45q-3 -53 -32 -88t-85 -35q-27 0 -53.5 10.5t-62.5 29.5q-33 18 -57 27.5t-46 9.5q-67 0 -72 -78h-45q3 53 32 88z" />
    <glyph glyph-name="asciicircum" unicode="^" horiz-adv-x="621" 
d="M470 284l-160 311l-161 -311h-43l203 396h4l203 -396h-46z" />
    <glyph glyph-name="infinity" unicode="&#x221e;" horiz-adv-x="787" 
d="M127.5 158q-35.5 19 -56.5 52t-21 74q0 43 21 76.5t57.5 52.5t80.5 19q52 0 98 -31.5t92 -85.5q34 38 59 61t58 39.5t73 16.5q64 0 105.5 -39.5t41.5 -103.5v-1q0 -45 -22 -79t-57.5 -52t-74.5 -18q-46 0 -91 28t-98 89q-47 -55 -91.5 -86t-99.5 -31q-39 0 -74.5 19z
M288.5 206q35.5 27 82.5 77q-45 54 -82 82.5t-86 28.5t-80 -32.5t-31 -78.5q0 -43 33.5 -73.5t83.5 -30.5q44 0 79.5 27zM642 194.5q25 15.5 39 40t14 49.5q0 50 -32 80t-79 30q-39 0 -73.5 -23.5t-90.5 -84.5q54 -58 90 -82.5t75 -24.5q32 0 57 15.5z" />
    <glyph glyph-name="integral" unicode="&#x222b;" horiz-adv-x="434" 
d="M17 -198.5q-12 1.5 -17 3.5l9 41q12 -2 25 -2q45 0 67 34l154 727q24 108 120 108q10 0 22 -1.5t17 -3.5l-9 -41q-12 2 -25 2q-45 0 -67 -34l-154 -726q-24 -109 -120 -109q-10 0 -22 1.5z" />
    <glyph glyph-name="product" unicode="&#x220f;" horiz-adv-x="676" 
d="M570 -100h-54v732h-357v-732h-53v780h464v-780z" />
    <glyph glyph-name="summation" unicode="&#x2211;" horiz-adv-x="549" 
d="M22 -98l256 388l-256 388v2h483v-48h-394l226 -342l-226 -342h394v-48h-483v2z" />
    <glyph glyph-name="radical" unicode="&#x221a;" horiz-adv-x="573" 
d="M547 680l-304 -705h-2l-219 504h55l166 -390l252 591h52z" />
    <glyph glyph-name="uni00B5" unicode="&#xb5;" horiz-adv-x="541" 
d="M445 479v-479h-49v59q-25 -33 -61 -51t-75 -18h-2q-68 0 -110 45v-235h-52v679h52v-365q10 -32 39.5 -55.5t73.5 -23.5h2q37 0 73 20.5t57 56.5v367h52z" />
    <glyph glyph-name="partialdiff" unicode="&#x2202;" horiz-adv-x="531" 
d="M368.5 545.5q54.5 -76.5 83.5 -152t29 -130.5v-59q0 -62 -28.5 -111.5t-77 -77t-107.5 -27.5h-5q-58 0 -107 27.5t-77.5 77t-28.5 111.5v7q0 62 28.5 111t76.5 77t106 28h5q40 0 80.5 -17.5t67.5 -48.5q-31 91 -92.5 172.5t-136.5 146.5h57q72 -58 126.5 -134.5zM425 207
q0 38 -2 56q-10 47 -51 83t-104 36h-5q-63 0 -104 -36t-51 -83q-2 -18 -2 -56q0 -36 2 -56q10 -46 51 -82t104 -36h5q63 0 104 36t51 82q2 20 2 56z" />
    <glyph glyph-name="percent" unicode="%" horiz-adv-x="775" 
d="M139.5 435.5q-32.5 18.5 -51.5 50.5t-19 69t19 68.5t51.5 50t70.5 18.5t70.5 -18.5t51.5 -50t19 -68.5t-19 -69t-51.5 -50.5t-70.5 -18.5t-70.5 18.5zM612 680h53l-506 -680h-53zM269 475.5q25 19.5 31 45.5q2 22 2 34q0 14 -2 34q-6 25 -31 44.5t-59 19.5t-59 -19.5
t-31 -44.5q-1 -10 -1 -34q0 -23 1 -34q6 -26 31 -45.5t59 -19.5t59 19.5zM494.5 10.5q-32.5 18.5 -51.5 50.5t-19 69t19 69t51.5 50.5t70.5 18.5t70.5 -18.5t51.5 -50.5t19 -69t-19 -69t-51.5 -50.5t-70.5 -18.5t-70.5 18.5zM624 50.5q25 19.5 31 45.5q2 22 2 34q0 14 -2 34
q-6 26 -31 45.5t-59 19.5q-33 0 -58 -20t-31 -45q-1 -10 -1 -34q0 -23 1 -34q6 -25 31 -45t58 -20q34 0 59 19.5z" />
    <glyph glyph-name="perthousand" unicode="&#x2030;" horiz-adv-x="1110" 
d="M139.5 435.5q-32.5 18.5 -51.5 50.5t-19 69t19 68.5t51.5 50t70.5 18.5t70.5 -18.5t51.5 -50t19 -68.5t-19 -69t-51.5 -50.5t-70.5 -18.5t-70.5 18.5zM612 680h53l-506 -680h-53zM269 475.5q25 19.5 31 45.5q2 22 2 34q0 14 -2 34q-6 25 -31 44.5t-59 19.5t-59 -19.5
t-31 -44.5q-1 -10 -1 -34q0 -23 1 -34q6 -26 31 -45.5t59 -19.5t59 19.5zM494.5 10.5q-32.5 18.5 -51.5 50.5t-19 69t19 69t51.5 50.5t70.5 18.5t70.5 -18.5t51.5 -50.5t19 -69t-19 -69t-51.5 -50.5t-70.5 -18.5t-70.5 18.5zM829.5 10.5q-32.5 18.5 -51.5 50.5t-19 69t19 69
t51.5 50.5t70.5 18.5t70.5 -18.5t51.5 -50.5t19 -69t-19 -69t-51.5 -50.5t-70.5 -18.5t-70.5 18.5zM624 50.5q25 19.5 31 45.5q2 22 2 34q0 14 -2 34q-6 26 -31 45.5t-59 19.5q-33 0 -58 -20t-31 -45q-1 -10 -1 -34q0 -23 1 -34q6 -25 31 -45t58 -20q34 0 59 19.5zM959 50.5
q25 19.5 31 45.5q2 22 2 34q0 14 -2 34q-6 26 -31 45.5t-59 19.5q-33 0 -58 -20t-31 -45q-1 -10 -1 -34q0 -23 1 -34q6 -25 31 -45t58 -20q34 0 59 19.5z" />
    <glyph glyph-name="uni25CF" unicode="&#x25cf;" horiz-adv-x="806" 
d="M226 34.5q-81 47.5 -128.5 128.5t-47.5 177t47.5 177t128.5 128.5t177 47.5t177 -47.5t128.5 -128.5t47.5 -177t-47.5 -177t-128.5 -128.5t-177 -47.5t-177 47.5z" />
    <glyph glyph-name="circle" unicode="&#x25cb;" horiz-adv-x="806" 
d="M226 34.5q-81 47.5 -128.5 128.5t-47.5 177t47.5 177t128.5 128.5t177 47.5t177 -47.5t128.5 -128.5t47.5 -177t-47.5 -177t-128.5 -128.5t-177 -47.5t-177 47.5zM557 75q70 41 111 111t41 154t-41 154t-111 111t-154 41t-154 -41t-111 -111t-41 -154t41 -154t111 -111
t154 -41t154 41z" />
    <glyph glyph-name="lozenge" unicode="&#x25ca;" horiz-adv-x="627" 
d="M63 340l211 340h79l211 -340l-211 -340h-79zM504 340l-190 309l-191 -309l191 -309z" />
    <glyph glyph-name="at" unicode="@" horiz-adv-x="887" 
d="M639 583q85 -41 135 -118.5t50 -181.5q0 -68 -24 -119.5t-63.5 -79.5t-85.5 -28q-44 0 -74.5 22t-34.5 60q-23 -41 -59.5 -61.5t-73.5 -20.5q-68 0 -108 43.5t-40 114.5q0 59 24 110t66.5 81t95.5 30q39 0 74 -19t48 -60l13 69h44l-46 -218q-4 -17 -4 -36q0 -38 20 -59
t56 -21q38 0 67.5 26t46 70t16.5 97q0 94 -44 162.5t-119.5 105t-166.5 36.5q-98 0 -176.5 -45t-123.5 -124t-45 -177t42 -172.5t118 -115.5t173 -41q39 0 77.5 7t65.5 20l12 -33q-57 -30 -156 -30q-107 0 -193 44.5t-134.5 127t-48.5 192.5q0 109 51 196.5t140 137
t198 49.5q102 0 187 -41zM481.5 121.5q30.5 27.5 47 71.5t16.5 91q0 58 -26 86t-70 28q-40 0 -72 -25t-50 -67t-18 -90q0 -56 25.5 -89t77.5 -33q39 0 69.5 27.5z" />
    <glyph glyph-name="ampersand" unicode="&#x26;" horiz-adv-x="634" 
d="M574 0l-90 94q-54 -52 -102.5 -79t-111.5 -27h-5q-51 0 -94 20.5t-68.5 55.5t-25.5 75v6q0 49 25.5 87.5t89.5 89.5l42 34l-38 40q-74 78 -74 144v4q0 41 22 74.5t59.5 53t82.5 19.5h5q46 0 83.5 -19.5t59.5 -53t22 -74.5v-4q0 -32 -20.5 -67.5t-75.5 -80.5l-53 -43
l178 -190l80 80h65l-114 -113l119 -126h-61zM188.5 483q13.5 -21 48.5 -59l39 -42l48 39q76 60 86 105q3 56 -31 89.5t-88 33.5h-5q-54 0 -87 -33t-31 -90q7 -22 20.5 -43zM363 56q42 24 90 71l-187 196l-39 -31q-84 -67 -100 -116q-1 -6 -1 -16q0 -54 40 -91t100 -37h5
q50 0 92 24z" />
    <glyph glyph-name="paragraph" unicode="&#xb6;" horiz-adv-x="643" 
d="M537 645h-54v-725h-43v725h-111v-725h-41v382h-47q-50 0 -95 22.5t-73 64t-28 97.5v10q0 56 28 97.5t73 64t95 22.5h296v-35z" />
    <glyph glyph-name="section" unicode="&#xa7;" horiz-adv-x="637" 
d="M472.5 349q23.5 -21 41 -50t17.5 -64v-2q0 -50 -41 -87t-98 -44q34 -26 53.5 -53.5t19.5 -61.5v-2q0 -49 -36 -82.5t-89 -33.5h-4q-44 0 -79 23t-55 57l38 25q42 -62 97 -62h2q35 0 57.5 23.5t19.5 63.5q-7 29 -82 85l-107 79q-39 29 -62.5 50t-41 50t-17.5 64v2
q0 50 41 87t98 44q-34 26 -53.5 53.5t-19.5 61.5v2q0 49 36 82t89 33h4q43 0 78.5 -23t55.5 -56l-38 -25q-43 61 -97 61h-2q-35 0 -57.5 -23t-19.5 -63q7 -29 82 -86l107 -78q39 -29 62.5 -50zM449 167.5q35 29.5 34 80.5q-7 29 -28 50.5t-71 59.5l-91 66h-15
q-54 0 -89.5 -29.5t-34.5 -80.5q7 -29 28 -50.5t71 -59.5l91 -66h15q55 0 90 29.5z" />
    <glyph glyph-name="copyright" unicode="&#xa9;" horiz-adv-x="807" 
d="M225.5 35.5q-81.5 47.5 -129 128.5t-47.5 176t47.5 176t129 128.5t177.5 47.5t177.5 -47.5t129.5 -128.5t48 -176t-48 -176t-129.5 -128.5t-177.5 -47.5t-177.5 47.5zM562.5 66q73.5 43 116 115.5t42.5 158.5t-42.5 158.5t-116 115.5t-159.5 43t-159 -43t-115.5 -115.5
t-42.5 -158.5t42.5 -158.5t115.5 -115.5t159 -43t159.5 43zM307 143.5q-48 25.5 -76 73.5t-28 113v16q0 66 28 114t76 73t108 25h5q64 0 108 -23v-41q-41 22 -108 22h-5q-61 0 -101.5 -30.5t-57.5 -74.5q-4 -16 -4 -73q0 -55 4 -73q17 -44 57 -74.5t102 -30.5h5q62 0 108 23
v-42q-48 -23 -108 -23h-5q-60 0 -108 25.5z" />
    <glyph glyph-name="registered" unicode="&#xae;" horiz-adv-x="517" 
d="M356 666q45 -26 71 -70.5t26 -97.5q0 -52 -26 -96.5t-71 -71t-98 -26.5t-97.5 26.5t-71 71t-26.5 96.5q0 53 26.5 97.5t71 70.5t97.5 26t98 -26zM340.5 355.5q37.5 22.5 59.5 60.5t22 82q0 45 -22 83t-59.5 60.5t-82.5 22.5q-44 0 -81.5 -22.5t-59.5 -60.5t-22 -83
q0 -44 22 -82t59.5 -60.5t81.5 -22.5q45 0 82.5 22.5zM320 500q-17 -15 -43 -17l69 -85h-37l-85 107v-107h-33v208h79q28 0 47.5 -16t19.5 -44v-4q0 -27 -17 -42zM271 508q15 0 24.5 8t9.5 24v4q0 16 -9.5 24.5t-24.5 8.5h-47v-69h47z" />
    <glyph glyph-name="trademark" unicode="&#x2122;" horiz-adv-x="805" 
d="M733 688v-377h-37v274l-140 -188h-1l-140 189v-275h-36v377h1l176 -232l176 232h1zM297 645h-110v-334h-38v334h-110v35h258v-35z" />
    <glyph glyph-name="degree" unicode="&#xb0;" horiz-adv-x="402" 
d="M115 518.5q-36 35.5 -36 84.5t36 84t86 35t86 -35t36 -84t-36 -84.5t-86 -35.5t-86 35.5zM256 545.5q23 23.5 23 57.5t-23 57t-55 23t-55.5 -23t-23.5 -57t23 -57.5t56 -23.5q32 0 55 23.5z" />
    <glyph glyph-name="bar" unicode="|" horiz-adv-x="359" 
d="M159 710h41v-790h-41v790z" />
    <glyph glyph-name="brokenbar" unicode="&#xa6;" horiz-adv-x="359" 
d="M159 710h41v-339h-41v339zM159 259h41v-339h-41v339z" />
    <glyph glyph-name="dagger" unicode="&#x2020;" horiz-adv-x="601" 
d="M496 437h-174v-517h-42v517h-174v42h174v231h42v-231h174v-42z" />
    <glyph glyph-name="daggerdbl" unicode="&#x2021;" horiz-adv-x="601" 
d="M322 437v-198h174v-42h-174v-277h-42v277h-174v42h174v198h-174v42h174v231h42v-231h174v-42h-174z" />
    <glyph glyph-name="uni0308" unicode="&#x308;" 
d="M-323 683h74v-82h-74v82zM-152 683h73v-82h-73v82z" />
    <glyph glyph-name="uni0308.case" 
d="M-342 835h74v-83h-74v83zM-152 835h73v-83h-73v83z" />
    <glyph glyph-name="uni0307" unicode="&#x307;" 
d="M-160 683h81v-82h-81v82z" />
    <glyph glyph-name="uni0307.case" 
d="M-160 835h81v-83h-81v83z" />
    <glyph glyph-name="gravecomb" unicode="&#x300;" 
d="M-221 710h59l83 -137h-51z" />
    <glyph glyph-name="gravecomb.case" 
d="M-215 853h62l74 -111h-53z" />
    <glyph glyph-name="acutecomb" unicode="&#x301;" 
d="M-138 710h59l-91 -137h-51z" />
    <glyph glyph-name="acutecomb.case" 
d="M-141 853h62l-83 -111h-53z" />
    <glyph glyph-name="uni030B" unicode="&#x30b;" 
d="M-283 710h54l-89 -137h-48zM-133 710h54l-89 -137h-48z" />
    <glyph glyph-name="uni030B.case" 
d="M-279 853h57l-82 -111h-49zM-136 853h57l-82 -111h-49z" />
    <glyph glyph-name="uni030C.alt" 
d="M-126 710h46l-39 -161h-43z" />
    <glyph glyph-name="uni0302" unicode="&#x302;" 
d="M-129 573l-75 104l-76 -104h-51l94 137h64l94 -137h-50z" />
    <glyph glyph-name="uni0302.case" 
d="M-130 742l-69 81l-69 -81h-51l88 111h64l88 -111h-51z" />
    <glyph glyph-name="uni030C" unicode="&#x30c;" 
d="M-79 710l-94 -137h-64l-94 137h51l76 -104l75 104h50z" />
    <glyph glyph-name="uni030C.case" 
d="M-79 853l-88 -111h-64l-88 111h51l69 -81l69 81h51z" />
    <glyph glyph-name="uni0306" unicode="&#x306;" 
d="M-276 603q-32 30 -34 74h39q2 -25 22 -44t55 -19q34 0 54 19t22 44h39q-2 -44 -33.5 -74t-81.5 -30t-82 30z" />
    <glyph glyph-name="uni0306.case" 
d="M-272.5 761q-30.5 28 -33.5 69h37q3 -22 22.5 -40t53.5 -18t54 18t23 40h37q-3 -42 -33.5 -69.5t-80.5 -27.5q-49 0 -79.5 28z" />
    <glyph glyph-name="uni030A" unicode="&#x30a;" 
d="M-226 582.5q-26 25.5 -26 59.5q0 35 26 60t61 25t60.5 -25t25.5 -60t-25.5 -60t-60.5 -25t-61 25.5zM-129.5 607.5q14.5 14.5 14.5 34.5q0 21 -14.5 35.5t-35.5 14.5t-36 -14.5t-15 -35.5q0 -20 15 -34.5t36 -14.5t35.5 14.5z" />
    <glyph glyph-name="uni030A.case" 
d="M-221 706.5q-25 24.5 -25 58.5q0 33 25 57.5t59 24.5t58.5 -24.5t24.5 -57.5q0 -34 -24.5 -58.5t-58.5 -24.5t-59 24.5zM-128 731q14 14 14 34q0 19 -14 33t-34 14t-34 -14t-14 -33q0 -20 14 -34t34 -14t34 14z" />
    <glyph glyph-name="tildecomb" unicode="&#x303;" 
d="M-331.5 662q17.5 26 51.5 26q31 0 65 -21l21 -12q17 -10 27 -14.5t19 -4.5q28 0 33 52h36q-2 -43 -18.5 -69t-49.5 -26q-27 0 -66 23l-22 13q-27 16 -44 16q-15 0 -24 -14t-11 -38h-36q1 43 18.5 69z" />
    <glyph glyph-name="tildecomb.case" 
d="M-332.5 807q17.5 23 49.5 23q31 0 68 -20l21 -11q32 -15 48 -15q27 0 30 46h37q-5 -87 -67 -87q-25 0 -69 22l-22 11q-23 13 -46 13q-28 0 -31 -46h-37q1 41 18.5 64z" />
    <glyph glyph-name="uni0304" unicode="&#x304;" 
d="M-303 657h224v-46h-224v46z" />
    <glyph glyph-name="uni0304.case" 
d="M-303 808h224v-46h-224v46z" />
    <glyph glyph-name="uni0312" unicode="&#x312;" 
d="M-130 699l50 47h1v-139h-51v92z" />
    <glyph glyph-name="uni0326" unicode="&#x326;" 
d="M-130 -69h51v-79l-50 -47h-1v126z" />
    <glyph glyph-name="uni0327" unicode="&#x327;" 
d="M-104.5 -90.5q25.5 -21.5 25.5 -58.5v-3q0 -40 -28.5 -62t-73.5 -22h-4q-48 0 -82 23v38q30 -26 81 -26h4q25 0 41.5 12.5t16.5 32.5v11q0 19 -18.5 31.5t-46.5 12.5h-35l44 104h38l-29 -69q41 -3 66.5 -24.5z" />
    <glyph glyph-name="uni0328" unicode="&#x328;" 
d="M-183.5 -164.5q-22.5 19.5 -22.5 54.5v3q0 53 72 103l35 26l20 -22l-33 -24q-22 -17 -35.5 -37t-13.5 -41v-3q0 -19 13 -31t32 -12h4q16 0 33 5v-35q-18 -6 -37 -6h-4q-41 0 -63.5 19.5z" />
    <glyph glyph-name="acute" unicode="&#xb4;" horiz-adv-x="600" 
d="M312 710h59l-91 -137h-51z" />
    <glyph glyph-name="breve" unicode="&#x2d8;" horiz-adv-x="600" 
d="M221 603q-32 30 -34 74h39q2 -25 22 -44t55 -19q34 0 54 19t22 44h39q-2 -44 -33.5 -74t-81.5 -30t-82 30z" />
    <glyph glyph-name="caron" unicode="&#x2c7;" horiz-adv-x="600" 
d="M427 710l-94 -137h-64l-94 137h51l76 -104l75 104h50z" />
    <glyph glyph-name="cedilla" unicode="&#xb8;" horiz-adv-x="600" 
d="M368.5 -90.5q25.5 -21.5 25.5 -58.5v-3q0 -40 -28.5 -62t-73.5 -22h-4q-48 0 -82 23v38q30 -26 81 -26h4q25 0 41.5 12.5t16.5 32.5v11q0 19 -18.5 31.5t-46.5 12.5h-35l44 104h38l-29 -69q41 -3 66.5 -24.5z" />
    <glyph glyph-name="circumflex" unicode="&#x2c6;" horiz-adv-x="600" 
d="M377 573l-75 104l-76 -104h-51l94 137h64l94 -137h-50z" />
    <glyph glyph-name="dieresis" unicode="&#xa8;" horiz-adv-x="600" 
d="M178 683h74v-82h-74v82zM349 683h73v-82h-73v82z" />
    <glyph glyph-name="dotaccent" unicode="&#x2d9;" horiz-adv-x="600" 
d="M259 683h81v-82h-81v82z" />
    <glyph glyph-name="grave" unicode="`" horiz-adv-x="600" 
d="M229 710h59l83 -137h-51z" />
    <glyph glyph-name="hungarumlaut" unicode="&#x2dd;" horiz-adv-x="600" 
d="M250 710h54l-89 -137h-48zM400 710h54l-89 -137h-48z" />
    <glyph glyph-name="macron" unicode="&#xaf;" horiz-adv-x="600" 
d="M188 657h224v-46h-224v46z" />
    <glyph glyph-name="ogonek" unicode="&#x2db;" horiz-adv-x="600" 
d="M259.5 -164.5q-22.5 19.5 -22.5 54.5v3q0 53 72 103l35 26l20 -22l-33 -24q-22 -17 -35.5 -37t-13.5 -41v-3q0 -19 13 -31t32 -12h4q16 0 33 5v-35q-18 -6 -37 -6h-4q-41 0 -63.5 19.5z" />
    <glyph glyph-name="ring" unicode="&#x2da;" horiz-adv-x="600" 
d="M242 582.5q-26 25.5 -26 59.5q0 35 26 60t61 25t60.5 -25t25.5 -60t-25.5 -60t-60.5 -25t-61 25.5zM338.5 607.5q14.5 14.5 14.5 34.5q0 21 -14.5 35.5t-35.5 14.5t-36 -14.5t-15 -35.5q0 -20 15 -34.5t36 -14.5t35.5 14.5z" />
    <glyph glyph-name="tilde" unicode="&#x2dc;" horiz-adv-x="600" 
d="M183.5 662q17.5 26 51.5 26q31 0 65 -21l21 -12q17 -10 27 -14.5t19 -4.5q28 0 33 52h36q-2 -43 -18.5 -69t-49.5 -26q-27 0 -66 23l-22 13q-27 16 -44 16q-15 0 -24 -14t-11 -38h-36q1 43 18.5 69z" />
    <glyph glyph-name="uniE001" unicode="&#xe001;" horiz-adv-x="632" 
d="M526 99l-463 464v117h43v-99l463 -464v-117h-43v99z" />
    <glyph glyph-name="uniE002" horiz-adv-x="434" 
d="M286 240l-180 181v259h43v-240l179 -181v-259h-42v240z" />
    </font>
</defs>
</svg>
